<?xml version="1.0" standalone="no"?>
<!DOCTYPE svg PUBLIC "-//W3C//DTD SVG 1.1//EN" "http://www.w3.org/Graphics/SVG/1.1/DTD/svg11.dtd" >
<svg>
<metadata>
Created by FontForge 20120731 at Thu Dec 24 02:27:50 2015
 By root
Generated by Fontographer 4.1
</metadata>
<defs>
<font id="WnazaninBold" horiz-adv-x="0" >
  <font-face 
    font-family="W_nazanin Bold"
    font-weight="400"
    font-stretch="normal"
    units-per-em="1100"
    panose-1="0 0 4 0 0 0 0 0 0 0"
    ascent="880"
    descent="-220"
    bbox="-231 -667 1253 1279"
    underline-thickness="20"
    underline-position="-123"
    unicode-range="U+0020-FE87"
  />
<missing-glyph horiz-adv-x="550" 
d="M69 0v700h412v-700h-412zM138 69h275v562h-275v-562z" />
    <glyph glyph-name="uniFE50" unicode="&#xfe5b;&#xfe00;" horiz-adv-x="656" 
d="M652 584q1 -1 1 -3q0 -6 -48 2q0 -152 -48 -261q-31 -70 -66 -100q39 -63 39 -111q0 -90 -62 -122q-44 -22 -186 -22q-45 0 -82 5l45 145q79 37 146 103q-73 95 -212 228q-12 -41 -15 -44q-2 0 -8 7q-91 121 -92 137q0 48 30 130q2 10 4 12q2 -1 9 -6q106 -79 343 -395
q46 42 46 144v110q0 42 -17 110l99 97q5 6 9 -3q30 -91 65 -163zM463 107q-8 33 -33 58q-39 -29 -91 -66q17 -5 61 -4q44 0 63 12z" />
    <glyph glyph-name="uniFE51" unicode="&#xfe5a;&#xfe00;" horiz-adv-x="752" 
d="M767 0h-37q-104 0 -147 80q-27 52 -34 184q-68 -194 -153 -265q-12 -10 -253 -24q-43 -3 -45 1q0 5 37 23q96 46 185.5 105.5t89.5 88.5q0 25 -60 101q-72 89 -171 157l-6 -51q-23 23 -73 75q-45 51 -45 67q0 57 15 124q2 11 6 13q3 0 11 -6q196 -140 295 -275
q66 -90 76 -164q84 101 84 336q0 46 -3 96l89 70q10 6 13 9q4 0 4 -17v-484q0 -91 96 -91h26v-153z" />
    <glyph glyph-name="uniFE52" unicode="&#xfe5b;&#xfe01;" horiz-adv-x="656" 
d="M652 584q1 -1 1 -3q0 -6 -48 2q0 -152 -48 -261q-31 -70 -66 -100q39 -63 39 -111q0 -90 -62 -122q-44 -22 -186 -22q-45 0 -82 5l45 145q79 37 146 103q-73 95 -212 228q-12 -41 -15 -44q-2 0 -8 7q-91 121 -92 137q0 48 30 130q2 10 4 12q2 -1 9 -6q106 -79 343 -395
q46 42 46 144v110q0 42 -17 110l99 97q5 6 9 -3q30 -91 65 -163zM463 107q-8 33 -33 58q-39 -29 -91 -66q17 -5 61 -4q44 0 63 12zM311 859q0 -25 -61.5 -59t-125.5 -35q-23 -1 -54.5 7.5t-39.5 8.5q-11 0 -21.5 -16.5t-21.5 -16.5q-18 0 -18 26q0 18 25 59.5t43 43.5
q9 -3 50.5 -17t95.5 -14q46 0 77.5 13t36.5 14q13 0 14 -14z" />
    <glyph glyph-name="exclamdown" unicode="&#xfe5a;&#xfe01;" horiz-adv-x="752" 
d="M767 0h-37q-104 0 -147 80q-27 52 -34 184q-68 -194 -153 -265q-12 -10 -253 -24q-43 -3 -45 1q0 5 37 23q96 46 185.5 105.5t89.5 88.5q0 25 -60 101q-72 89 -171 157l-6 -51q-23 23 -73 75q-45 51 -45 67q0 57 15 124q2 11 6 13q3 0 11 -6q196 -140 295 -275
q66 -90 76 -164q84 101 84 336q0 46 -3 96l89 70q10 6 13 9q4 0 4 -17v-484q0 -91 96 -91h26v-153zM311 859q0 -25 -61.5 -59t-125.5 -35q-23 -1 -54.5 7.5t-39.5 8.5q-11 0 -21.5 -16.5t-21.5 -16.5q-18 0 -18 26q0 18 25 59.5t43 43.5q9 -3 50.5 -17t95.5 -14
q46 0 77.5 13t36.5 14q13 0 14 -14z" />
    <glyph glyph-name="cent" unicode="&#xfe5b;&#xfe03;" horiz-adv-x="656" 
d="M652 584q1 -1 1 -3q0 -6 -48 2q0 -152 -48 -261q-31 -70 -66 -100q39 -63 39 -111q0 -90 -62 -122q-44 -22 -186 -22q-45 0 -82 5l45 145q79 37 146 103q-73 95 -212 228q-12 -41 -15 -44q-2 0 -8 7q-91 121 -92 137q0 48 30 130q2 10 4 12q2 -1 9 -6q106 -79 343 -395
q46 42 46 144v110q0 42 -17 110l99 97q5 6 9 -3q30 -91 65 -163zM463 107q-8 33 -33 58q-39 -29 -91 -66q17 -5 61 -4q44 0 63 12zM243 868q2 -9 0 -30q-1 -20 -8 -28q-83 -21 -206 -75v43q24 13 55 28q-12 5 -29.5 25t-17.5 39q0 30 40 71q38 38 76 39q21 1 42 -14.5
t23 -30.5q0 -23 -19 -23q-7 0 -27.5 7.5t-31.5 7.5q-15 0 -31 -7q-19 -10 -19 -22q0 -18 19 -34q17 -19 44 -19q22 0 46 10q19 6 44 13z" />
    <glyph glyph-name="sterling" unicode="&#xfe5a;&#xfe03;" horiz-adv-x="752" 
d="M767 0h-37q-104 0 -147 80q-27 52 -34 184q-68 -194 -153 -265q-12 -10 -253 -24q-43 -3 -45 1q0 5 37 23q96 46 185.5 105.5t89.5 88.5q0 25 -60 101q-72 89 -171 157l-6 -51q-23 23 -73 75q-45 51 -45 67q0 57 15 124q2 11 6 13q3 0 11 -6q196 -140 295 -275
q66 -90 76 -164q84 101 84 336q0 46 -3 96l89 70q10 6 13 9q4 0 4 -17v-484q0 -91 96 -91h26v-153zM243 868q2 -9 0 -30q-1 -20 -8 -28q-83 -21 -206 -75v43q24 13 55 28q-12 5 -29.5 25t-17.5 39q0 30 40 71q38 38 76 39q21 1 42 -14.5t23 -30.5q0 -23 -19 -23
q-7 0 -27.5 7.5t-31.5 7.5q-15 0 -31 -7q-19 -10 -19 -22q0 -18 19 -34q17 -19 44 -19q22 0 46 10q19 6 44 13z" />
    <glyph glyph-name="currency" unicode="&#xfe5b;&#xfe05;" horiz-adv-x="656" 
d="M652 584q1 -1 1 -3q0 -6 -48 2q0 -152 -48 -261q-31 -70 -66 -100q39 -63 39 -111q0 -90 -62 -122q-44 -22 -186 -22q-45 0 -82 5l45 145q79 37 146 103q-73 95 -212 228q-12 -41 -15 -44q-2 0 -8 7q-91 121 -92 137q0 48 30 130q2 10 4 12q2 -1 9 -6q106 -79 343 -395
q46 42 46 144v110q0 42 -17 110l99 97q5 6 9 -3q30 -91 65 -163zM463 107q-8 33 -33 58q-39 -29 -91 -66q17 -5 61 -4q44 0 63 12zM376 -196q2 -9 0 -30q-1 -20 -7 -28q-83 -20 -207 -75v43q24 13 55 29q-12 4 -29 24t-17 39q0 30 39 71q38 38 76 39q21 1 42 -14.5t23 -30.5
q0 -23 -19 -23q-7 0 -27 8t-32 8q-15 0 -31 -8q-19 -9 -19 -22q0 -17 18 -35t45 -18q22 0 46 10q19 6 44 13z" />
    <glyph glyph-name="yen" unicode="&#xfe5a;&#xfe05;" horiz-adv-x="752" 
d="M767 0h-37q-104 0 -147 80q-27 52 -34 184q-68 -194 -153 -265q-12 -10 -253 -24q-43 -3 -45 1q0 5 37 23q96 46 185.5 105.5t89.5 88.5q0 25 -60 101q-72 89 -171 157l-6 -51q-23 23 -73 75q-45 51 -45 67q0 57 15 124q2 11 6 13q3 0 11 -6q196 -140 295 -275
q66 -90 76 -164q84 101 84 336q0 46 -3 96l89 70q10 6 13 9q4 0 4 -17v-484q0 -91 96 -91h26v-153zM376 -196q2 -9 0 -30q-1 -20 -7 -28q-83 -20 -207 -75v43q24 13 55 29q-12 4 -29 24t-17 39q0 30 39 71q38 38 76 39q21 1 42 -14.5t23 -30.5q0 -23 -19 -23q-7 0 -27 8
t-32 8q-15 0 -31 -8q-19 -9 -19 -22q0 -17 18 -35t45 -18q22 0 46 10q19 6 44 13z" />
    <glyph glyph-name="Egrave" unicode="&#xfe5b;&#xfe5a;&#xfe64;" horiz-adv-x="921" arabic-form="isolated" 
d="M639 842q13 -30 13 -69q0 -74 -36 -76q3 63 -20 106zM739 630q0 -32 -13 -57q-18 -26 -45 -26q-28 0 -50 14q-29 -43 -62 -43q-50 0 -50 65q0 29 9 46q7 22 21 23q6 0 8 -36q1 -31 26 -31q24 0 28.5 42t15.5 42q12 0 19 -31.5t32 -31.5q24 0 24 28q0 7 -6 41l32 21
q11 -20 11 -66zM966 198q0 -119 -64 -172q-42 -35 -106 -35q-106 0 -147 90q-28 -90 -120 -91q-79 -1 -121 47q-18 21 -42 81q-19 -34 -49 -68q-8 -4 -44 -4q-165 0 -165 63q0 57 20 84q42 55 101 94q24 16 93 43l-7 61l69 57q19 15 23 15q3 -4 6 -23q21 -187 35 -228
q24 -71 95 -71q56 0 58 74q0 8 -1 18q-11 90 -29 228l110 66q28 -263 37 -301q21 -84 82 -84q50 0 51 76q1 49 -48 279l97 78q4 5 11 7q6 0 9 -15q46 -267 46 -369zM352 171l-21 94q-110 -38 -133 -83q6 -15 76 -15q35 0 78 4z" />
    <glyph glyph-name="agrave" unicode="&#x651;&#x64e;" arabic-form="isolated" 
d="M229 1081l-231 -80v62l231 80v-62zM233 943q0 -37 -14 -62q-18 -31 -50 -31t-53 18q-34 -48 -71 -48q-56 0 -56 72q0 32 9 51q8 23 25 25q4 0 9 -38q0 -36 29 -36q25 0 30 46t17 46q13 0 22 -34t35 -34t28 29q0 12 -8 46l37 24q11 -22 11 -74z" />
    <glyph glyph-name="acircumflex" unicode="&#x651;&#x650;" arabic-form="isolated" 
d="M229 900l-231 -83v64l231 81v-62zM237 1086q1 -30 -17 -64q-19 -29 -49 -30q-34 0 -54 17q-37 -49 -71 -49q-55 0 -56 73q-1 69 34 77q8 0 9 -38q1 -33 29 -37q26 0 31 47t17 47t21.5 -35t35.5 -35q27 0 27 31q0 13 -8 45l38 25q11 -26 13 -74z" />
    <glyph glyph-name="adieresis" unicode="&#x651;&#x64f;" arabic-form="isolated" 
d="M244 1185q0 -52 -38 -77q11 -14 25 -18l-34 -51q-22 4 -52 25q-82 -42 -110 -42q-14 0 -50 35q-9 9 -9 11q0 6 24 7q72 4 110 25q-13 17 -13 41q-1 30 33.5 65t65.5 35q20 0 34 -17.5t14 -38.5zM196 1165q0 28 -20 28q-8 0 -20 -10q-7 -13 -9 -21q0 -21 24 -34
q25 17 25 37zM233 943q0 -37 -14 -62q-18 -31 -50 -31t-53 18q-34 -48 -71 -48q-56 0 -56 72q0 32 9 51q8 23 25 25q4 0 9 -38q0 -36 29 -36q25 0 30 46t17 46q13 0 22 -34t35 -34t28 29q0 12 -8 46l37 24q11 -22 11 -74z" />
    <glyph glyph-name="ae" unicode="&#x651;&#x64b;" arabic-form="isolated" 
d="M233 943q0 -37 -14 -62q-18 -31 -50 -31t-53 18q-34 -48 -71 -48q-56 0 -56 72q0 32 9 51q8 23 25 25q4 0 9 -38q0 -36 29 -36q25 0 30 46t17 46q13 0 22 -34t35 -34t28 29q0 12 -8 46l37 24q11 -22 11 -74zM229 1077l-231 -82v62l231 82v-62zM229 1201l-231 -81v63
l231 80v-62z" />
    <glyph glyph-name="egrave" unicode="&#x651;&#x64d;" arabic-form="isolated" 
d="M233 1205q0 -38 -14 -62q-18 -30 -50 -31q-33 -1 -53 18q-36 -49 -71 -49q-56 0 -56 73q0 30 8 51.5t26 25.5q4 0 9 -40q0 -35 29 -35q25 0 30 46.5t17 46.5q16 0 22.5 -35t34.5 -35q26 0 28 31q0 12 -8 46l37 23q11 -23 11 -74zM229 900l-231 -83v64l231 81v-62z
M229 1025l-231 -82v63l231 81v-62z" />
    <glyph glyph-name="ecircumflex" unicode="&#x651;&#x64c;" arabic-form="final" 
d="M244 1178q0 -50 -38 -76q10 -13 25 -16l-34 -53q-26 7 -52 25q-74 -37 -112 -38q-10 0 -42 30q-5 5 -5 8q6 2 37 9q7 2 13 16q1 4 1 8q0 9 -3.5 15t-13.5 6q-16 0 -30 -12l-21 20q26 27 51 27q36 0 48 -25q7 -24 -9 -45q26 4 51 17q-13 20 -13 41q-1 31 33.5 66.5
t65.5 35.5q20 0 34 -19t14 -40zM196 1160q1 27 -20 27q-10 0 -18.5 -10.5t-10.5 -20.5q0 -22 22 -34q26 16 27 38zM233 943q0 -37 -14 -62q-18 -31 -50 -31t-53 18q-34 -48 -71 -48q-56 0 -56 72q0 32 9 51q8 23 25 25q4 0 9 -38q0 -36 29 -36q25 0 30 46t17 46q13 0 22 -34
t35 -34t28 29q0 12 -8 46l37 24q11 -22 11 -74z" />
    <glyph glyph-name="Oacute" unicode="&#xfe71;" arabic-form="medial" 
d="M306 681l-231 -82v63l231 81v-62z" />
    <glyph glyph-name="Otilde" unicode="&#xfe72;" arabic-form="isolated" 
d="M301 -150l-232 -81v63l232 80v-62z" />
    <glyph glyph-name="Ugrave" unicode="&#xfe74;" arabic-form="isolated" 
d="M306 681l-231 -82v63l231 81v-62zM306 806l-231 -82v63l231 81v-62z" />
    <glyph glyph-name="Yacute" unicode="&#xfe76;" arabic-form="isolated" 
d="M321 767q0 -51 -38 -76q10 -14 25 -17l-34 -52q-26 6 -52 25q-74 -37 -112 -39q-10 0 -42 30q-5 5 -5 8q6 2 37 10q8 4 13 15q1 4 1 9q0 9 -3.5 15.5t-13.5 6.5q-17 0 -30 -13l-21 21q27 26 51 26q36 0 48 -25q7 -25 -9 -46q27 5 51 17q-13 19 -13 42q-1 31 33.5 66
t65.5 35q19 0 35 -19q13 -21 13 -39zM273 748q1 28 -20 28q-9 0 -20 -11q-7 -9 -9 -19q0 -25 22 -35q26 17 27 37z" />
    <glyph glyph-name="germandbls" unicode="&#xfe77;" arabic-form="medial" 
d="M310 724q0 -37 -14 -62q-18 -30 -50 -30t-53 17q-34 -48 -71 -48q-56 0 -56 72q0 32 9 51q8 23 25 25q4 0 9 -38q0 -35 29 -35q25 0 30 45.5t17 45.5q13 0 22 -34t35 -34t28 29q0 12 -8 47l37 23q11 -22 11 -74z" />
    <glyph glyph-name="aacute" unicode="&#xfe79;" arabic-form="medial" 
d="M306 863l-231 -81v62l231 80v-61zM310 724q0 -37 -14 -62q-18 -30 -50 -30t-53 17q-34 -48 -71 -48q-56 0 -56 72q0 32 9 51q8 23 25 25q4 0 9 -38q0 -35 29 -35q25 0 30 45.5t17 45.5q13 0 22 -34t35 -34t28 29q0 12 -8 47l37 23q11 -22 11 -74z" />
    <glyph glyph-name="atilde" unicode="&#xfe7b;" arabic-form="medial" 
d="M306 681l-231 -82v63l231 81v-62zM314 867q1 -30 -17 -64q-19 -29 -49 -30q-34 0 -54 17q-37 -48 -71 -48q-55 0 -56 72q-1 69 34 77q8 0 9 -38q1 -33 29 -37q26 0 31 47t17 47t21.5 -34.5t35.5 -34.5q27 0 27 30q0 13 -8 45l38 25q11 -26 13 -74z" />
    <glyph glyph-name="aring" unicode="&#xfe7d;" arabic-form="medial" 
d="M321 966q0 -52 -38 -77q11 -14 25 -18l-34 -51q-22 4 -52 25q-82 -42 -110 -42q-14 0 -50 35q-9 9 -9 11q0 6 24 7q72 4 110 25q-13 17 -13 41q-1 30 33.5 65t65.5 35q20 0 34 -17.5t14 -38.5zM273 946q0 28 -20 28q-8 0 -20 -10q-7 -13 -9 -21q0 -21 24 -34q25 17 25 37
zM310 724q0 -37 -14 -62q-18 -30 -50 -30t-53 17q-34 -48 -71 -48q-56 0 -56 72q0 32 9 51q8 23 25 25q4 0 9 -38q0 -35 29 -35q25 0 30 45.5t17 45.5q13 0 22 -34t35 -34t28 29q0 12 -8 47l37 23q11 -22 11 -74z" />
    <glyph glyph-name="ccedilla" unicode="&#xfe7f;" arabic-form="medial" 
d="M310 724q0 -37 -14 -62q-18 -30 -50 -30t-53 17q-34 -48 -71 -48q-56 0 -56 72q0 32 9 51q8 23 25 25q4 0 9 -38q0 -35 29 -35q25 0 30 45.5t17 45.5q13 0 22 -34t35 -34t28 29q0 12 -8 47l37 23q11 -22 11 -74zM306 858l-231 -82v62l231 82v-62zM306 982l-231 -81v63
l231 80v-62z" />
    <glyph glyph-name="eacute" unicode="&#x622;" arabic-form="isolated" 
d="M310 986q0 -38 -14 -62q-18 -30 -50 -31q-33 -1 -53 18q-36 -48 -71 -48q-56 0 -56 72q0 30 8 51.5t26 25.5q4 0 9 -39q0 -36 29 -36q25 0 30 46.5t17 46.5q16 0 22.5 -35t34.5 -35q26 0 28 31q0 12 -8 46l37 24q11 -24 11 -75zM306 681l-231 -82v63l231 81v-62zM306 806
l-231 -82v63l231 81v-62z" />
    <glyph glyph-name="edieresis" unicode="&#x623;" arabic-form="isolated" 
d="M321 959q0 -50 -38 -76q10 -13 25 -16l-34 -53q-26 7 -52 25q-74 -37 -112 -38q-10 0 -42 30q-5 5 -5 8q6 2 37 9q7 2 13 16q1 4 1 8q0 9 -3.5 15t-13.5 6q-16 0 -30 -12l-21 20q26 28 51 28q36 0 48 -26q7 -24 -9 -45q26 4 51 17q-13 20 -13 41q-1 31 33.5 66.5
t65.5 35.5q20 0 34 -19t14 -40zM273 941q1 27 -20 27q-10 0 -18.5 -10.5t-10.5 -20.5q0 -22 22 -34q26 16 27 38zM310 724q0 -37 -14 -62q-18 -30 -50 -30t-53 17q-34 -48 -71 -48q-56 0 -56 72q0 32 9 51q8 23 25 25q4 0 9 -38q0 -35 29 -35q25 0 30 45.5t17 45.5
q13 0 22 -34t35 -34t28 29q0 12 -8 47l37 23q11 -22 11 -74z" />
    <glyph glyph-name="iacute" unicode="&#x623;" arabic-form="final" 
d="M355 716q0 -36 -77 -67q-65 -26 -109 -26q-32 0 -61 9q-11 3 -33 8q-9 0 -21.5 -17.5t-22.5 -17.5q-17 0 -17 27q0 19 26 61t44 42l48 -17q45 -15 97 -15q27 0 68 14t45 14q13 0 13 -15z" />
    <glyph glyph-name="idieresis" unicode="&#x624;" arabic-form="isolated" 
d="M267 703q0 -99 -84 -101q-32 -1 -53.5 18t-21.5 50q0 36 16 76q20 51 50 51t58 -22q35 -28 35 -72zM234 689q1 13 -18 32t-45 19q-30 0 -30 -39q0 -33 52 -34q40 -1 41 22z" />
    <glyph glyph-name="ntilde" unicode="&#x624;" arabic-form="final" 
d="M306 735q3 -8 1 -30t-8 -28q-83 -21 -207 -75l-1 43q6 2 24.5 12t31.5 16q-11 5 -28.5 26t-17.5 38q0 30 39 71q37 38 77 39q18 1 41 -13.5t23 -31.5q0 -23 -19 -23q-4 0 -25.5 7.5t-34.5 7.5q-16 0 -31 -10q-18 -11 -18 -19q0 -18 20 -34q17 -19 44 -19q8 0 85 22
q3 1 4 1z" />
    <glyph glyph-name="oacute" unicode="&#x625;" arabic-form="isolated" 
d="M199 826q9 -26 9 -92q0 -131 -43 -132q0 35 -2 61q-6 71 -16 109z" />
    <glyph glyph-name=".notdef" horiz-adv-x="550" 
d="M69 0v700h412v-700h-412zM138 69h275v562h-275v-562z" />
    <glyph glyph-name=".null" 
 />
    <glyph glyph-name="nonmarkingreturn" horiz-adv-x="208" 
 />
    <glyph glyph-name="space" unicode=" " horiz-adv-x="208" 
 />
    <glyph glyph-name="glyph4" horiz-adv-x="1012" 
d="M859 465l-65 -65q-3 -2 -6 -2t-5 2l-65 65q-6 6 0 11l65 65q2 4 5 4t6 -4l65 -65q6 -5 0 -11zM859 341q6 -7 0 -13l-65 -59q-6 -5 -11 0l-64 59q-7 6 -1 13l64 71q6 6 12 0zM861 202q-29 -90 -130 -135v-60q0 -8 -8 -8h-48q-22 0 -41 21q-15 15 -42 41q-45 -40 -124 -49
q-25 -3 -51 -9q-22 -4 -23 -4q-8 0 -8 8v93q0 17 15 17q1 0 3 -5t15 -5q11 0 35 4q55 7 79 28q-48 67 -56 135q0 5 5 8q11 9 34 27q12 10 35 30q4 6 9 4t5 -9q0 -94 79 -188q5 3 5 34v226q0 2 3 5l66 65q4 5 9 3q4 -1 4 -8v-291q0 -27 12 -34h39q3 0 3 1t-14 16
q-24 24 -50 33q-10 5 -2 14l63 71q4 5 10 1q28 -14 68 -73q2 -5 1 -7zM470 103q0 -8 -8 -8q-76 -10 -76 5v371q0 2 3 5l67 65q5 6 9 4q5 -2 5 -9v-433zM293 401l-65 -72q-4 -3 -6 -3q-3 0 -7 3l-65 72q-3 5 2 10l66 65q2 8 11 0l65 -65q7 -6 -1 -10zM403 73q0 -3 -1 -4
q-33 -42 -69 -68q-2 -4 -9 1q-154 145 -175 271q0 4 5 9q8 9 28 27q11 10 36 30q4 6 9 4q4 -2 4 -9q0 -94 78 -188q6 3 11 34v226q0 1 4 5l65 65q5 5 10 3q4 -1 4 -8v-398zM842 471l-54 55l-54 -55l54 -53zM842 336l-54 58l-54 -58l54 -50zM844 202q-34 51 -54 62l-54 -57
q22 -10 46 -34q16 -16 16 -29q0 -14 -16 -14h-42h-2q-24 13 -24 50v272l-48 -50v-222q0 -50 -27 -50q-4 0 -5 3q-79 94 -85 185q-12 -9 -22.5 -19.5t-33.5 -27.5q12 -67 58 -128q5 -5 -1 -10q-28 -29 -94 -38q-37 -5 -53 -2v-76q29 6 63 10q78 10 121 51q5 6 10 0l48 -47
q15 -15 30 -15h39v57q0 6 5 7q96 40 125 122zM453 110v407l-50 -50v-354q0 -12 50 -3zM277 405l-56 55l-52 -55l52 -58zM386 75v377l-48 -50l-1 -223q-10 -49 -33 -49q-5 0 -5 3q-77 92 -84 185q-16 -18 -50 -48q21 -116 165 -253q24 20 56 58z" />
    <glyph glyph-name="exclam" unicode="&#x660;" horiz-adv-x="433" 
d="M361 283q-21 -19 -75 -71q-33 -32 -67 -76q-28 37 -69 81q-21 21 -77 64q20 17 73 68q20 22 69 79q16 -19 62 -70q20 -23 84 -75z" />
    <glyph glyph-name="quotedbl" unicode="&#x661;" horiz-adv-x="416" 
d="M328 216q0 -103 -17 -179q-19 -88 -49 -88q-19 0 -24 40q-1 9 -1 69q0 303 -154 523q33 55 94 145q35 -28 82 -137q69 -165 69 -373z" />
    <glyph glyph-name="numbersign" unicode="&#x662;" horiz-adv-x="589" 
d="M523 694q0 -113 -65 -179q-59 -60 -142 -60q-13 0 -21 2q36 -141 36 -310q0 -194 -56 -195q-18 -1 -23 33q-5 158 -40 286q-39 145 -148 314l86 145q19 -21 57 -66q48 -49 121 -49q62 0 97 30q7 6 34 48q23 36 35 36q29 0 29 -35z" />
    <glyph glyph-name="dollar" unicode="&#x663;" horiz-adv-x="681" 
d="M614 677q0 -70 -29 -132q-37 -82 -98 -82q-36 0 -48 7q-19 7 -37 34q-39 -58 -109 -62q38 -113 40 -287q1 -67 -12 -131q-15 -72 -44 -72q-20 0 -25 29q-2 49 -7 104q-7 84 -37 194q-49 182 -149 301l87 154q13 -11 36 -50q11 -20 39 -55q29 -26 62 -26q45 0 66 33
q5 8 17 58q9 33 25 33q22 0 30 -28q8 -49 11 -55q15 -29 56 -29q36 0 53 30q4 7 19 56q8 28 23 28q31 0 31 -52z" />
    <glyph glyph-name="percent" unicode="&#x6f4;" horiz-adv-x="609" 
d="M546 534q0 -55 -59 -114q-67 -67 -156 -67q-27 0 -41 2q12 -52 24 -157q0 -68 -9 -141q-16 -116 -48 -116q-26 0 -31 80q-12 156 -22 208q-40 190 -141 320q50 92 89 155q31 -28 79 -104q62 116 167 116q45 0 83 -35q31 -29 31 -45q0 -23 -16 -24q-10 0 -44 9.5t-55 9.5
q-47 1 -76 -29q-21 -28 -21 -56q0 -10 3 -15q19 -53 100 -55q54 -1 96 36q38 31 41 31q6 0 6 -9z" />
    <glyph glyph-name="ampersand" unicode="&#x664;" horiz-adv-x="609" 
d="M546 534q0 -55 -59 -114q-67 -67 -156 -67q-27 0 -41 2q12 -52 24 -157q0 -68 -9 -141q-16 -116 -48 -116q-26 0 -31 80q-12 156 -22 208q-40 190 -141 320q50 92 89 155q31 -28 79 -104q62 116 167 116q45 0 83 -35q31 -29 31 -45q0 -23 -16 -24q-10 0 -44 9.5t-55 9.5
q-47 1 -76 -29q-21 -28 -21 -56q0 -10 3 -15q19 -53 100 -55q54 -1 96 36q38 31 41 31q6 0 6 -9z" />
    <glyph glyph-name="quotesingle" unicode="&#x6f5;" horiz-adv-x="651" 
d="M585 169q1 -92 -41 -150t-114 -58q-65 0 -99 63q-44 -72 -121 -72q-66 -1 -104 48q-34 44 -34 112q-1 74 66 231q49 116 104 206l-23 27l62 141q5 13 11 13q5 0 12 -9q130 -163 202 -293q78 -141 79 -259zM507 164q0 52 -86 175q-65 93 -134 166q-33 -64 -75 -169
q-45 -116 -45 -158q0 -70 64 -70q41 0 61 26q5 10 15 50q7 26 27 26q24 0 31 -25q11 -41 15 -47q17 -25 63 -26q64 -1 64 52z" />
    <glyph glyph-name="parenleft" unicode="&#x665;" horiz-adv-x="651" 
d="M585 169q1 -92 -41 -150t-114 -58q-65 0 -99 63q-44 -72 -121 -72q-66 -1 -104 48q-34 44 -34 112q-1 74 66 231q49 116 104 206l-23 27l62 141q5 13 11 13q5 0 12 -9q130 -163 202 -293q78 -141 79 -259zM507 164q0 52 -86 175q-65 93 -134 166q-33 -64 -75 -169
q-45 -116 -45 -158q0 -70 64 -70q41 0 61 26q5 10 15 50q7 26 27 26q24 0 31 -25q11 -41 15 -47q17 -25 63 -26q64 -1 64 52z" />
    <glyph glyph-name="parenright" unicode="&#x6f6;" horiz-adv-x="595" 
d="M529 499q-1 -10 -21 -84q-18 -68 -25 -75q-15 -6 -48 -17q-111 -48 -226 -198q-49 -63 -91 -132q-23 -36 -38 -36q-13 0 -13 32q0 9 1 14q7 75 62 183q27 53 94 136q-130 30 -130 151q0 62 67 141q95 112 167 112q47 0 90 -40q39 -35 39 -71q0 -23 -13 -23t-57.5 14
t-68.5 14q-44 1 -84 -25q-44 -28 -48 -70q0 -41 50 -68q41 -22 86 -22q28 -1 106.5 45t92.5 48q11 0 8 -29z" />
    <glyph glyph-name="asterisk" unicode="&#x666;" horiz-adv-x="595" 
d="M529 499q-1 -10 -21 -84q-18 -68 -25 -75q-15 -6 -48 -17q-111 -48 -226 -198q-49 -63 -91 -132q-23 -36 -38 -36q-13 0 -13 32q0 9 1 14q7 75 62 183q27 53 94 136q-130 30 -130 151q0 62 67 141q95 112 167 112q47 0 90 -40q39 -35 39 -71q0 -23 -13 -23t-57.5 14
t-68.5 14q-44 1 -84 -25q-44 -28 -48 -70q0 -41 50 -68q41 -22 86 -22q28 -1 106.5 45t92.5 48q11 0 8 -29z" />
    <glyph glyph-name="plus" unicode="&#x667;" horiz-adv-x="667" 
d="M603 556q-112 -138 -167 -291q-20 -53 -53 -206q-22 -98 -43 -98q-23 0 -41 73q-34 141 -62 221q-62 170 -172 296l55 165q3 17 9 17q4 0 14 -11q64 -71 122 -220q48 -124 73 -246q18 109 62 235q54 151 123 232q3 4 12 10q4 0 10 -17z" />
    <glyph glyph-name="comma" unicode="&#x668;" horiz-adv-x="688" 
d="M85 136q111 138 167 291q17 45 53 204q22 99 43 99q22 0 40 -73q35 -145 63 -220q64 -173 171 -295l-54 -166q-3 -14 -10 -17q-3 0 -13 12q-65 75 -123 220q-50 127 -72 245q-19 -109 -63 -234q-52 -147 -122 -233q-8 -8 -12 -10q-4 0 -10 17z" />
    <glyph glyph-name="hyphen" unicode="&#x669;" horiz-adv-x="589" 
d="M521 117l-48 -168q-101 75 -131 204q-12 52 -12 173q-41 -5 -78 -5q-183 0 -183 121q0 61 39 155q53 131 142 131t133 -79q39 -70 39 -201q1 -160 35 -241q18 -46 64 -90zM315 482q0 33 -27 61.5t-67 28.5q-32 0 -49 -19q-13 -13 -15 -33q0 -44 72 -45q61 -1 86 7z" />
    <glyph glyph-name="period" unicode="&#x640;" horiz-adv-x="454" 
d="M470 0h-485v153h485v-153z" />
    <glyph glyph-name="slash" unicode="&#x621;" horiz-adv-x="410" 
d="M410 184l-22 -87q-37 -6 -138 -42q-97 -34 -147 -64v55q23 24 79 61q-73 31 -73 78q0 51 60 109.5t112 58.5q39 0 62 -19q24 -14 24 -37q0 -38 -27 -38q-13 0 -39 8t-42 8q-20 0 -42.5 -17.5t-25.5 -36.5q0 -16 28 -38q32 -27 73 -27q24 0 118 28z" />
    <glyph glyph-name="zero" unicode="&#x627;" horiz-adv-x="234" 
d="M233 134q0 -42 -44 -136q-11 -24 -16 -26q-9 0 -13 54l-55 625l108 90q9 9 15 9q5 0 5 -12v-604z" />
    <glyph glyph-name="one" unicode="&#xfe00;" horiz-adv-x="343" 
d="M360 0h-71q-57 0 -99 40q-55 52 -56 158q-3 309 -27 436q-4 17 2 22l97 80q13 11 21 13h1q2 -2 3 -16l-1 -496q0 -85 95 -85h35v-152z" />
    <glyph glyph-name="two" unicode="&#x622;" horiz-adv-x="373" 
d="M290 132q0 -47 -44 -139q-9 -20 -17 -24q-6 0 -11 55l-57 625l109 90q10 9 16 9q4 0 4 -12v-604zM399 892q0 -25 -61.5 -59t-125.5 -35q-23 -1 -54.5 7.5t-39.5 8.5q-11 0 -21.5 -16.5t-21.5 -16.5q-18 0 -18 26q0 18 25 59.5t43 43.5q9 -3 50.5 -17t95.5 -14
q46 0 77.5 13t36.5 14q13 0 14 -14z" />
    <glyph glyph-name="three" unicode="&#xfe01;" horiz-adv-x="396" 
d="M411 0h-70q-57 0 -99 40q-54 51 -56 158q-1 60 -8 220q-10 170 -20 216q-3 17 3 22l96 80q14 11 21 13h1q2 0 4 -16l-1 -496q0 -85 94 -85h35v-152zM399 892q0 -25 -61.5 -59t-125.5 -35q-23 -1 -54.5 7.5t-39.5 8.5q-11 0 -21.5 -16.5t-21.5 -16.5q-18 0 -18 26
q0 18 25 59.5t43 43.5q9 -3 50.5 -17t95.5 -14q46 0 77.5 13t36.5 14q13 0 14 -14z" />
    <glyph glyph-name="four" unicode="&#x623;" horiz-adv-x="286" 
d="M250 134q0 -39 -45 -136q-12 -24 -17 -26q-6 0 -11 54l-57 625l109 90q7 9 14 9t7 -12v-604zM287 879q2 -9 0 -30q-1 -20 -8 -28q-83 -21 -206 -75v43q24 13 55 28q-12 5 -29.5 25t-17.5 39q0 30 40 71q38 38 76 39q21 1 42 -14.5t23 -30.5q0 -23 -19 -23q-7 0 -27.5 7.5
t-31.5 7.5q-15 0 -31 -7q-19 -10 -19 -22q0 -18 19 -34q17 -19 44 -19q22 0 46 10q19 6 44 13z" />
    <glyph glyph-name="five" unicode="&#xfe03;" horiz-adv-x="353" 
d="M370 0h-70q-56 0 -99 40q-55 51 -56 158q-1 94 -9 220q-11 178 -19 216q-2 17 3 22l97 80q16 13 21 13h1q2 -2 3 -16l-1 -496q0 -85 93 -85h36v-152zM282 879q1 -9 0 -30q-2 -22 -7 -28q-77 -19 -207 -75l-1 43q5 2 23.5 12t31.5 16q-9 4 -27.5 25t-18.5 39q0 33 41 71
t74 39q21 1 42.5 -14.5t21.5 -30.5q0 -23 -16 -23q-6 0 -27 7.5t-34 7.5q-17 0 -33 -10t-16 -19q0 -19 18 -34q18 -19 44 -19q18 0 47.5 10t43.5 13z" />
    <glyph glyph-name="six" unicode="&#x625;" horiz-adv-x="234" 
d="M233 134q0 -42 -44 -136q-11 -24 -16 -26q-9 0 -13 54l-55 625l108 90q9 9 15 9q5 0 5 -12v-604zM310 -196q2 -9 0 -30q-1 -20 -7 -28q-83 -20 -207 -75v43q24 13 55 29q-12 4 -29 24t-17 39q0 30 39 71q38 38 76 39q21 1 42 -14.5t23 -30.5q0 -23 -19 -23q-7 0 -27 8
t-32 8q-15 0 -31 -8q-19 -9 -19 -22q0 -17 18 -35t45 -18q22 0 46 10q19 6 44 13z" />
    <glyph glyph-name="seven" unicode="&#xfe05;" horiz-adv-x="343" 
d="M360 0h-71q-57 0 -99 40q-55 52 -56 158q-3 309 -27 436q-4 17 2 22l97 80q13 11 21 13h1q2 -2 3 -16l-1 -496q0 -85 95 -85h35v-152zM343 -196q2 -9 0 -30q-1 -20 -7 -28q-83 -20 -207 -75v43q24 13 55 29q-12 4 -29 24t-17 39q0 30 39 71q38 38 76 39q21 1 42 -14.5
t23 -30.5q0 -23 -19 -23q-7 0 -27 8t-32 8q-15 0 -31 -8q-19 -9 -19 -22q0 -17 18 -35t45 -18q22 0 46 10q19 6 44 13z" />
    <glyph glyph-name="eight" unicode="&#xfe06;" horiz-adv-x="234" 
d="M233 134q0 -42 -44 -136q-11 -24 -16 -26q-9 0 -13 54l-55 625l108 90q9 9 15 9q5 0 5 -12v-604z" />
    <glyph glyph-name="nine" unicode="&#xfe07;" horiz-adv-x="343" 
d="M360 0h-71q-57 0 -99 40q-55 52 -56 158q-3 309 -27 436q-4 17 2 22l97 80q13 11 21 13h1q2 -2 3 -16l-1 -496q0 -85 95 -85h35v-152z" />
    <glyph glyph-name="colon" unicode="&#x671;" horiz-adv-x="234" 
d="M233 134q0 -42 -44 -136q-11 -24 -16 -26q-9 0 -13 54l-55 625l108 90q9 9 15 9q5 0 5 -12v-604z" />
    <glyph glyph-name="semicolon" unicode="&#xfe08;" horiz-adv-x="343" 
d="M360 0h-71q-57 0 -99 40q-55 52 -56 158q-3 309 -27 436q-4 17 2 22l97 80q13 11 21 13h1q2 -2 3 -16l-1 -496q0 -85 95 -85h35v-152z" />
    <glyph glyph-name="less" unicode="&#x628;" horiz-adv-x="914" 
d="M912 238q0 -129 -83 -185q-93 -64 -377 -64q-153 0 -232 35q-114 51 -115 183q-1 35 21 95q27 71 56 71q22 0 22 -25q-2 -11 -9 -31q-10 -29 -10 -49q0 -89 104 -116q48 -12 194 -12q346 0 346 57q0 9 -30 49q-26 33 -40 48l77 98q5 8 9 8t10 -6q57 -70 57 -156z
M580 -183l-81 -81l-80 81l80 80z" />
    <glyph glyph-name="equal" unicode="&#xfe09;" horiz-adv-x="1001" 
d="M1016 0h-45q-47 0 -88.5 30t-57.5 76q-83 -74 -200 -99q-80 -18 -199 -18q-321 0 -321 218q0 60 28 115q26 51 44 51q20 0 23 -25q0 -10 -8 -38t-8 -43q-2 -80 92 -110q55 -17 182 -17q226 0 344 86q18 13 52 49q24 26 36 28q19 0 20 -29q0 -11 -29 -76q18 -45 100 -45
h35v-153zM580 -183l-81 -81l-80 81l80 80z" />
    <glyph glyph-name="greater" unicode="&#xfe0a;" horiz-adv-x="422" 
d="M438 0h-55q-46 0 -88.5 24t-65.5 63q-21 -39 -64 -63t-88 -24h-92v153h70q86 0 119 38q19 23 27 72q6 38 28 38q20 1 27 -38q8 -43 18 -62q15 -28 47 -40q23 -8 56 -8h61v-153zM262 -186l-80 -80l-81 80l81 79z" />
    <glyph glyph-name="question" unicode="&#xfe0b;" horiz-adv-x="219" 
d="M217 231q0 -95 -40 -157q-47 -74 -136 -74h-56v153h66q83 0 84 31q1 28 -66 101q-7 8 0 19l69 96q8 11 18 3q23 -25 42 -73t19 -99zM195 -183l-82 -81l-79 81l79 80z" />
    <glyph glyph-name="at" unicode="&#x67e;" horiz-adv-x="914" 
d="M912 238q0 -129 -83 -185q-93 -64 -377 -64q-153 0 -232 35q-114 51 -115 183q-1 35 21 95q27 71 56 71q22 0 22 -25q-2 -11 -9 -31q-10 -29 -10 -49q0 -89 104 -116q48 -12 194 -12q346 0 346 57q0 9 -30 49q-26 33 -40 48l77 98q5 8 9 8t10 -6q57 -70 57 -156z
M657 -135l-72 -73l-72 73l72 72zM496 -135l-71 -73l-73 73l73 72zM580 -255l-74 -73l-71 73l71 72z" />
    <glyph glyph-name="A" unicode="&#xfe0c;" horiz-adv-x="1001" 
d="M1016 0h-45q-47 0 -88.5 30t-57.5 76q-83 -74 -200 -99q-80 -18 -199 -18q-321 0 -321 218q0 60 28 115q26 51 44 51q20 0 23 -25q0 -10 -8 -38t-8 -43q-2 -80 92 -110q55 -17 182 -17q226 0 344 86q18 13 52 49q24 26 36 28q19 0 20 -29q0 -11 -29 -76q18 -45 100 -45
h35v-153zM657 -135l-72 -73l-72 73l72 72zM496 -135l-71 -73l-73 73l73 72zM580 -255l-74 -73l-71 73l71 72z" />
    <glyph glyph-name="B" unicode="&#xfe0d;" horiz-adv-x="422" 
d="M438 0h-55q-46 0 -88.5 24t-65.5 63q-21 -39 -64 -63t-88 -24h-92v153h70q86 0 119 38q19 23 27 72q6 38 28 38q20 1 27 -38q8 -43 18 -62q15 -28 47 -40q23 -8 56 -8h61v-153zM361 -135l-72 -73l-72 73l72 72zM200 -135l-72 -73l-73 73l73 72zM282 -255l-73 -73l-71 73
l71 72z" />
    <glyph glyph-name="C" unicode="&#xfe0e;" horiz-adv-x="317" 
d="M217 231q0 -95 -40 -157q-47 -74 -136 -74h-56v153h66q83 0 84 31q1 28 -66 101q-7 8 0 19l69 96q8 11 18 3q23 -25 42 -73t19 -99zM319 -135l-73 -73l-70 73l70 72zM158 -135l-72 -73l-73 73l73 72zM241 -255l-73 -73l-72 73l72 72z" />
    <glyph glyph-name="D" unicode="&#x62a;" horiz-adv-x="914" 
d="M912 238q0 -129 -83 -185q-93 -64 -377 -64q-153 0 -232 35q-114 51 -115 183q-1 35 21 95q27 71 56 71q22 0 22 -25q-2 -11 -9 -31q-10 -29 -10 -49q0 -89 104 -116q48 -12 194 -12q346 0 346 57q0 9 -30 49q-26 33 -40 48l77 98q5 8 9 8t10 -6q57 -70 57 -156zM649 468
l-73 -72l-71 72l71 72zM486 468l-71 -72l-73 72l73 72z" />
    <glyph glyph-name="E" unicode="&#xfe0f;" horiz-adv-x="1001" 
d="M1016 0h-45q-47 0 -88.5 30t-57.5 76q-83 -74 -200 -99q-80 -18 -199 -18q-321 0 -321 218q0 60 28 115q26 51 44 51q20 0 23 -25q0 -10 -8 -38t-8 -43q-2 -80 92 -110q55 -17 182 -17q226 0 344 86q18 13 52 49q24 26 36 28q19 0 20 -29q0 -11 -29 -76q18 -45 100 -45
h35v-153zM649 468l-73 -72l-71 72l71 72zM486 468l-71 -72l-73 72l73 72z" />
    <glyph glyph-name="F" unicode="&#xfe10;" horiz-adv-x="422" 
d="M438 0h-55q-46 0 -88.5 24t-65.5 63q-21 -39 -64 -63t-88 -24h-92v153h70q86 0 119 38q19 23 27 72q6 38 28 38q20 1 27 -38q8 -43 18 -62q15 -28 47 -40q23 -8 56 -8h61v-153zM348 468l-73 -72l-73 72l73 72zM185 468l-73 -72l-71 72l71 72z" />
    <glyph glyph-name="G" unicode="&#xfe11;" horiz-adv-x="316" 
d="M217 231q0 -95 -40 -157q-47 -74 -136 -74h-56v153h66q83 0 84 31q1 28 -66 101q-7 8 0 19l69 96q8 11 18 3q23 -25 42 -73t19 -99zM319 578l-73 -73l-70 73l70 71zM158 578l-72 -73l-73 73l73 71z" />
    <glyph glyph-name="H" unicode="&#x62b;" horiz-adv-x="914" 
d="M912 238q0 -129 -83 -185q-93 -64 -377 -64q-153 0 -232 35q-114 51 -115 183q-1 35 21 95q27 71 56 71q22 0 22 -25q-2 -11 -9 -31q-10 -29 -10 -49q0 -89 104 -116q48 -12 194 -12q346 0 346 57q0 9 -30 49q-26 33 -40 48l77 98q5 8 9 8t10 -6q57 -70 57 -156zM343 435
l73 71l72 -71l-72 -73zM505 435l74 71l71 -71l-71 -73zM424 554l72 73l72 -73l-72 -72z" />
    <glyph glyph-name="I" unicode="&#xfe12;" horiz-adv-x="1001" 
d="M1016 0h-45q-47 0 -88.5 30t-57.5 76q-83 -74 -200 -99q-80 -18 -199 -18q-321 0 -321 218q0 60 28 115q26 51 44 51q20 0 23 -25q0 -10 -8 -38t-8 -43q-2 -80 92 -110q55 -17 182 -17q226 0 344 86q18 13 52 49q24 26 36 28q19 0 20 -29q0 -11 -29 -76q18 -45 100 -45
h35v-153zM343 435l73 71l72 -71l-72 -73zM505 435l74 71l71 -71l-71 -73zM424 554l72 73l72 -73l-72 -72z" />
    <glyph glyph-name="J" unicode="&#xfe13;" horiz-adv-x="422" 
d="M438 0h-55q-46 0 -88.5 24t-65.5 63q-21 -39 -64 -63t-88 -24h-92v153h70q86 0 119 38q19 23 27 72q6 38 28 38q20 1 27 -38q8 -43 18 -62q15 -28 47 -40q23 -8 56 -8h61v-153zM58 460l72 72l72 -72l-72 -73zM219 460l73 72l72 -72l-72 -73zM136 580l73 72l73 -72
l-73 -73z" />
    <glyph glyph-name="K" unicode="&#xfe14;" horiz-adv-x="307" 
d="M217 231q0 -95 -40 -157q-47 -74 -136 -74h-56v153h66q83 0 84 31q1 28 -66 101q-7 8 0 19l69 96q8 11 18 3q23 -25 42 -73t19 -99zM0 554l73 73l72 -73l-72 -72zM162 554l71 73l73 -73l-73 -72zM80 674l72 72l74 -72l-74 -72z" />
    <glyph glyph-name="L" unicode="&#x62c;" horiz-adv-x="743" 
d="M736 -227q-64 -94 -263 -95q-173 -1 -270.5 69t-97.5 194q-2 217 317 329q-129 27 -163 27q-36 0 -70.5 -33.5t-38.5 -33.5q-27 0 -27 22q0 17 18 53q31 63 44 78q42 48 98 48q16 0 104 -15q98 -17 169 -24q87 -9 171 0q14 3 14 -1t-5 -17l-50 -117q-77 -2 -160 -14
t-167 -70q-117 -81 -117 -201q0 -203 289 -203q131 0 196 21q12 4 13 -2q3 -5 -4 -15zM584 -7l-79 -79l-80 79l80 81z" />
    <glyph glyph-name="M" unicode="&#xfe15;" horiz-adv-x="812" 
d="M827 0h-84q-100 0 -157 48q-62 52 -62 149q0 26 4 46q-92 -19 -170 -72q-116 -79 -116 -199q0 -203 289 -203q131 0 196 21q12 4 13 -2q3 -5 -4 -15q-64 -94 -263 -95q-173 -1 -270.5 69t-97.5 194q-2 217 317 329q-129 27 -163 27q-36 0 -70.5 -33.5t-38.5 -33.5
q-27 0 -27 22q0 17 18 53q31 63 44 78q42 48 98 48q16 0 104 -15q98 -17 169 -24q87 -9 171 0q18 3 18 -1q0 -2 -7 -17l-52 -117q-37 0 -97 -5q0 -69 60 -90q25 -9 100 -9h78v-153zM548 -43l-79 -80l-82 80l82 80z" />
    <glyph glyph-name="N" unicode="&#xfe16;" horiz-adv-x="729" 
d="M745 0h-118q-194 0 -194 183q-197 -183 -400 -183h-48v153h63q108 0 185 27q60 22 167 85q-130 47 -204 49q-33 0 -67.5 -35.5t-41.5 -35.5q-22 0 -23 21q-1 18 11 42q68 138 157 138q38 0 167 -41t213 -42q45 -1 45 -3q0 -3 -4 -10l-49 -108q-65 0 -109 -19
q0 -46 52 -60q27 -8 91 -8h107v-153zM428 -157l-79 -81l-81 81l81 81z" />
    <glyph glyph-name="O" unicode="&#xfe17;" horiz-adv-x="662" 
d="M657 277l-76 -110q-76 0 -165 -43q-98 -47 -162 -80q-108 -44 -220 -44h-47v153h64q140 0 222 22q61 17 125 52q-31 12 -94 36q-78 27 -107 27q-34 0 -68.5 -29.5t-40.5 -29.5q-24 0 -24 26q0 17 17 49q65 115 147 115q37 0 180 -66q140 -65 222 -65q32 0 32 -4
q0 -5 -5 -9zM496 -157l-80 -81l-80 81l80 81z" />
    <glyph glyph-name="P" unicode="&#x686;" horiz-adv-x="743" 
d="M736 -227q-64 -94 -263 -95q-173 -1 -270.5 69t-97.5 194q-2 217 317 329q-129 27 -163 27q-36 0 -70.5 -33.5t-38.5 -33.5q-27 0 -27 22q0 17 18 53q31 63 44 78q42 48 98 48q16 0 104 -15q98 -17 169 -24q87 -9 171 0q14 3 14 -1t-5 -17l-50 -117q-77 -2 -160 -14
t-167 -70q-117 -81 -117 -201q0 -203 289 -203q131 0 196 21q12 4 13 -2q3 -5 -4 -15zM681 23l-73 -73l-72 73l72 73zM520 23l-72 -73l-73 73l73 73zM603 -97l-73 -72l-72 72l72 73z" />
    <glyph glyph-name="Q" unicode="&#xfe18;" horiz-adv-x="812" 
d="M827 0h-84q-100 0 -157 48q-62 52 -62 149q0 26 4 46q-92 -19 -170 -72q-116 -79 -116 -199q0 -203 289 -203q131 0 196 21q12 4 13 -2q3 -5 -4 -15q-64 -94 -263 -95q-173 -1 -270.5 69t-97.5 194q-2 217 317 329q-129 27 -163 27q-36 0 -70.5 -33.5t-38.5 -33.5
q-27 0 -27 22q0 17 18 53q31 63 44 78q42 48 98 48q16 0 104 -15q98 -17 169 -24q87 -9 171 0q18 3 18 -1q0 -2 -7 -17l-52 -117q-37 0 -97 -5q0 -69 60 -90q25 -9 100 -9h78v-153zM625 -9l-73 -72l-72 72l72 73zM462 -9l-71 -72l-73 72l73 73zM545 -129l-72 -72l-73 72
l73 73z" />
    <glyph glyph-name="R" unicode="&#xfe19;" horiz-adv-x="729" 
d="M745 0h-118q-194 0 -194 183q-197 -183 -400 -183h-48v153h63q108 0 185 27q60 22 167 85q-130 47 -204 49q-33 0 -67.5 -35.5t-41.5 -35.5q-22 0 -23 21q-1 18 11 42q68 138 157 138q38 0 167 -41t213 -42q45 -1 45 -3q0 -3 -4 -10l-49 -108q-65 0 -109 -19
q0 -46 52 -60q27 -8 91 -8h107v-153zM515 -107l-72 -72l-72 72l72 72zM353 -107l-72 -72l-73 72l73 72zM436 -228l-73 -71l-73 71l73 73z" />
    <glyph glyph-name="S" unicode="&#xfe1a;" horiz-adv-x="662" 
d="M657 277l-76 -110q-76 0 -165 -43q-98 -47 -162 -80q-108 -44 -220 -44h-47v153h64q140 0 222 22q61 17 125 52q-31 12 -94 36q-78 27 -107 27q-34 0 -68.5 -29.5t-40.5 -29.5q-24 0 -24 26q0 17 17 49q65 115 147 115q37 0 180 -66q140 -65 222 -65q32 0 32 -4
q0 -5 -5 -9zM546 -107l-72 -72l-72 72l72 72zM385 -107l-73 -72l-72 72l72 72zM468 -228l-73 -71l-73 71l73 73z" />
    <glyph glyph-name="T" unicode="&#x62d;" horiz-adv-x="743" 
d="M736 -227q-64 -94 -263 -95q-173 -1 -270.5 69t-97.5 194q-2 217 317 329q-129 27 -163 27q-36 0 -70.5 -33.5t-38.5 -33.5q-27 0 -27 22q0 17 18 53q31 63 44 78q42 48 98 48q16 0 104 -15q98 -17 169 -24q87 -9 171 0q14 3 14 -1t-5 -17l-50 -117q-77 -2 -160 -14
t-167 -70q-117 -81 -117 -201q0 -203 289 -203q131 0 196 21q12 4 13 -2q3 -5 -4 -15z" />
    <glyph glyph-name="U" unicode="&#xfe1b;" horiz-adv-x="812" 
d="M827 0h-84q-100 0 -157 48q-62 52 -62 149q0 26 4 46q-92 -19 -170 -72q-116 -79 -116 -199q0 -203 289 -203q131 0 196 21q12 4 13 -2q3 -5 -4 -15q-64 -94 -263 -95q-173 -1 -270.5 69t-97.5 194q-2 217 317 329q-129 27 -163 27q-36 0 -70.5 -33.5t-38.5 -33.5
q-27 0 -27 22q0 17 18 53q31 63 44 78q42 48 98 48q16 0 104 -15q98 -17 169 -24q87 -9 171 0q18 3 18 -1q0 -2 -7 -17l-52 -117q-37 0 -97 -5q0 -69 60 -90q25 -9 100 -9h78v-153z" />
    <glyph glyph-name="V" unicode="&#xfe1c;" horiz-adv-x="729" 
d="M745 0h-118q-194 0 -194 183q-197 -183 -400 -183h-48v153h63q108 0 185 27q60 22 167 85q-130 47 -204 49q-33 0 -67.5 -35.5t-41.5 -35.5q-22 0 -23 21q-1 18 11 42q68 138 157 138q38 0 167 -41t213 -42q45 -1 45 -3q0 -3 -4 -10l-49 -108q-65 0 -109 -19
q0 -46 52 -60q27 -8 91 -8h107v-153z" />
    <glyph glyph-name="W" unicode="&#xfe1d;" horiz-adv-x="662" 
d="M657 277l-76 -110q-76 0 -165 -43q-98 -47 -162 -80q-108 -44 -220 -44h-47v153h64q140 0 222 22q61 17 125 52q-31 12 -94 36q-78 27 -107 27q-34 0 -68.5 -29.5t-40.5 -29.5q-24 0 -24 26q0 17 17 49q65 115 147 115q37 0 180 -66q140 -65 222 -65q32 0 32 -4
q0 -5 -5 -9z" />
    <glyph glyph-name="X" unicode="&#x62e;" horiz-adv-x="743" 
d="M736 -227q-64 -94 -263 -95q-173 -1 -270.5 69t-97.5 194q-2 217 317 329q-129 27 -163 27q-36 0 -70.5 -33.5t-38.5 -33.5q-27 0 -27 22q0 17 18 53q31 63 44 78q42 48 98 48q16 0 104 -15q98 -17 169 -24q87 -9 171 0q14 3 14 -1t-5 -17l-50 -117q-77 -2 -160 -14
t-167 -70q-117 -81 -117 -201q0 -203 289 -203q131 0 196 21q12 4 13 -2q3 -5 -4 -15zM517 620l-80 -79l-82 79l82 82z" />
    <glyph glyph-name="Y" unicode="&#xfe1e;" horiz-adv-x="812" 
d="M827 0h-84q-100 0 -157 48q-62 52 -62 149q0 26 4 46q-92 -19 -170 -72q-116 -79 -116 -199q0 -203 289 -203q131 0 196 21q12 4 13 -2q3 -5 -4 -15q-64 -94 -263 -95q-173 -1 -270.5 69t-97.5 194q-2 217 317 329q-129 27 -163 27q-36 0 -70.5 -33.5t-38.5 -33.5
q-27 0 -27 22q0 17 18 53q31 63 44 78q42 48 98 48q16 0 104 -15q98 -17 169 -24q87 -9 171 0q18 3 18 -1q0 -2 -7 -17l-52 -117q-37 0 -97 -5q0 -69 60 -90q25 -9 100 -9h78v-153zM517 620l-80 -79l-82 79l82 82z" />
    <glyph glyph-name="Z" unicode="&#xfe1f;" horiz-adv-x="729" 
d="M745 0h-118q-194 0 -194 183q-197 -183 -400 -183h-48v153h63q108 0 185 27q60 22 167 85q-130 47 -204 49q-33 0 -67.5 -35.5t-41.5 -35.5q-22 0 -23 21q-1 18 11 42q68 138 157 138q38 0 167 -41t213 -42q45 -1 45 -3q0 -3 -4 -10l-49 -108q-65 0 -109 -19
q0 -46 52 -60q27 -8 91 -8h107v-153zM470 620l-81 -79l-79 79l79 82z" />
    <glyph glyph-name="bracketleft" unicode="&#xfe20;" horiz-adv-x="662" 
d="M657 277l-76 -110q-76 0 -165 -43q-98 -47 -162 -80q-108 -44 -220 -44h-47v153h64q140 0 222 22q61 17 125 52q-31 12 -94 36q-78 27 -107 27q-34 0 -68.5 -29.5t-40.5 -29.5q-24 0 -24 26q0 17 17 49q65 115 147 115q37 0 180 -66q140 -65 222 -65q32 0 32 -4
q0 -5 -5 -9zM439 620l-80 -79l-81 79l81 82z" />
    <glyph glyph-name="backslash" unicode="&#x62f;" horiz-adv-x="529" 
d="M527 216q0 -122 -79 -173q-63 -42 -191 -43q-151 -1 -152 144q-1 7 2 29q8 79 42 79q19 0 22 -28q4 -38 14 -51q25 -27 96 -28q40 0 97 9q79 13 79 40q0 45 -83 115q-70 59 -122 76l35 132q4 13 7 13q4 0 13 -5q85 -54 146 -132q74 -93 74 -177z" />
    <glyph glyph-name="bracketright" unicode="&#xfe21;" horiz-adv-x="674" 
d="M690 0h-63q-85 0 -144 109q-51 -63 -80 -80q-48 -28 -149 -29q-147 -1 -147 138q0 21 4 45q14 74 47 74q19 0 20 -28q2 -41 12 -55q21 -28 87 -29q165 -1 165 63q0 35 -83 216l67 86q5 10 9 11q3 0 11 -15l102 -275q30 -79 83 -79h59v-152z" />
    <glyph glyph-name="asciicircum" unicode="&#x630;" horiz-adv-x="529" 
d="M527 216q0 -122 -79 -173q-63 -42 -191 -43q-151 -1 -152 144q-1 7 2 29q8 79 42 79q19 0 22 -28q4 -38 14 -51q25 -27 96 -28q40 0 97 9q79 13 79 40q0 45 -83 115q-70 59 -122 76l35 132q4 13 7 13q4 0 13 -5q85 -54 146 -132q74 -93 74 -177zM351 682l-81 -79l-80 79
l80 80z" />
    <glyph glyph-name="underscore" unicode="&#xfe22;" horiz-adv-x="674" 
d="M690 0h-63q-85 0 -144 109q-51 -63 -80 -80q-48 -28 -149 -29q-147 -1 -147 138q0 21 4 45q14 74 47 74q19 0 20 -28q2 -41 12 -55q21 -28 87 -29q165 -1 165 63q0 35 -83 216l67 86q5 10 9 11q3 0 11 -15l102 -275q30 -79 83 -79h59v-152zM439 673l-80 -80l-81 80l81 81
z" />
    <glyph glyph-name="grave" unicode="&#x631;" horiz-adv-x="454" 
d="M454 41q1 -86 -40 -177q-29 -62 -73 -108q-34 -35 -42 -35q-156 0 -236 28q-15 7 -1 12q106 39 205 115q110 84 110 152q0 31 -39 80q-29 36 -65 66l56 121q2 7 7 7q3 0 7 -4q109 -109 111 -257z" />
    <glyph glyph-name="a" unicode="&#xfe23;" horiz-adv-x="548" 
d="M564 0h-27q-50 0 -88 15q0 -179 -109 -283q-32 -31 -41 -33q-155 0 -236 30q-17 7 -1 12q107 40 206 115q114 86 114 145q0 29 -42 79q-34 41 -66 67l62 127q3 8 13 0q88 -121 163 -121h52v-153z" />
    <glyph glyph-name="b" unicode="&#x632;" horiz-adv-x="454" 
d="M454 41q1 -86 -40 -177q-29 -62 -73 -108q-34 -35 -42 -35q-156 0 -236 28q-15 7 -1 12q106 39 205 115q110 84 110 152q0 31 -39 80q-29 36 -65 66l56 121q2 7 7 7q3 0 7 -4q109 -109 111 -257zM386 483l-80 -80l-79 80l79 81z" />
    <glyph glyph-name="c" unicode="&#xfe24;" horiz-adv-x="548" 
d="M564 0h-27q-50 0 -88 15q0 -179 -109 -283q-32 -31 -41 -33q-155 0 -236 30q-17 7 -1 12q107 40 206 115q114 86 114 145q0 29 -42 79q-34 41 -66 67l62 127q3 8 13 0q88 -121 163 -121h52v-153zM386 460l-80 -82l-79 82l79 80z" />
    <glyph glyph-name="d" unicode="&#x698;" horiz-adv-x="454" 
d="M454 41q1 -86 -40 -177q-29 -62 -73 -108q-34 -35 -42 -35q-156 0 -236 28q-15 7 -1 12q106 39 205 115q110 84 110 152q0 31 -39 80q-29 36 -65 66l56 121q2 7 7 7q3 0 7 -4q109 -109 111 -257zM152 469l72 71l73 -71l-73 -73zM312 469l73 71l73 -71l-73 -73zM230 587
l73 73l72 -73l-72 -71z" />
    <glyph glyph-name="e" unicode="&#xfe25;" horiz-adv-x="548" 
d="M564 0h-27q-50 0 -88 15q0 -179 -109 -283q-32 -31 -41 -33q-155 0 -236 30q-17 7 -1 12q107 40 206 115q114 86 114 145q0 29 -42 79q-34 41 -66 67l62 127q3 8 13 0q88 -121 163 -121h52v-153zM162 448l71 71l73 -71l-73 -73zM323 448l73 71l73 -71l-73 -73zM241 567
l73 72l72 -72l-72 -72z" />
    <glyph glyph-name="f" unicode="&#x633;" horiz-adv-x="1124" 
d="M1122 227q0 -83 -35 -147q-42 -79 -118 -80q-69 -1 -112 76q-42 -75 -103 -75q-22 0 -44 9q3 -31 3 -58q0 -144 -108 -213q-89 -57 -242 -57q-114 0 -183 56q-73 60 -74 171q-1 61 33.5 151t61.5 90q25 0 25 -32q-4 -10 -20 -55q-17 -48 -17 -89q0 -86 66 -119
q47 -23 144 -23q95 0 170 28q87 34 87 87q0 32 -51 104q-36 51 -78 91l57 120q5 11 17 0q74 -109 145 -109q44 0 61 35q1 1 18 65q9 35 31 36q17 1 26 -36q14 -56 21 -68q21 -35 77 -35q65 0 67 50q1 23 -51 87l53 84q5 7 13 16l12 -12q48 -64 48 -148z" />
    <glyph glyph-name="g" unicode="&#xfe26;" horiz-adv-x="1235" 
d="M1253 0h-73q-39 0 -66 19t-51 62q-47 -81 -106 -81q-78 0 -102 76q-34 -75 -100 -75q-23 0 -45 9q3 -31 3 -58q0 -144 -108 -213q-89 -57 -242 -57q-114 0 -183 56q-73 60 -74 171q-1 61 33.5 151t61.5 90q25 0 25 -32q-4 -10 -20 -55q-17 -48 -17 -89q0 -86 66 -119
q47 -23 144 -23q95 0 170 28q87 34 87 87q0 32 -51 104q-36 51 -78 91l57 120q5 11 17 0q75 -110 145 -110q39 0 56 36q2 2 19 65q9 35 33 36q19 1 26 -36q11 -57 15 -65q18 -35 62 -36q41 -1 58 36q3 5 18 65q9 35 33 36q19 1 26 -36q10 -48 20 -65q22 -35 78 -35h63v-153z
" />
    <glyph glyph-name="h" unicode="&#xfe27;" horiz-adv-x="861" 
d="M878 0h-68q-73 0 -122 81q-47 -81 -123 -81q-69 0 -117 81q-45 -81 -117 -81q-74 0 -121 81q-46 -81 -143 -81h-82v153h96q54 0 75 35q9 15 22 65q10 36 29 36q22 1 31 -36q6 -27 17 -65q19 -35 72 -36q49 -1 72 36q7 14 21 65q10 35 32 36q20 1 28 -36q10 -52 17 -65
q19 -35 74 -36q46 -1 66 36q4 6 21 65q10 35 33 36q19 1 27 -36q12 -54 19 -65q23 -35 78 -35h63v-153z" />
    <glyph glyph-name="i" unicode="&#xfe28;" horiz-adv-x="724" 
d="M722 227q0 -82 -33 -146q-42 -80 -120 -81q-73 -1 -121 81q-45 -81 -117 -81q-74 0 -121 81q-46 -81 -143 -81h-82v153h96q54 0 75 35q9 15 22 65q10 36 29 36q22 1 31 -36q6 -27 17 -65q19 -35 72 -36q49 -1 72 36q7 14 21 65q10 35 32 36q20 1 28 -36q11 -56 17 -68
q18 -35 74 -35q74 0 74 50q0 26 -50 87l54 84q4 7 12 16l12 -12q49 -73 49 -148z" />
    <glyph glyph-name="j" unicode="&#x634;" horiz-adv-x="1124" 
d="M1122 227q0 -83 -35 -147q-42 -79 -118 -80q-69 -1 -112 76q-42 -75 -103 -75q-22 0 -44 9q3 -31 3 -58q0 -144 -108 -213q-89 -57 -242 -57q-114 0 -183 56q-73 60 -74 171q-1 61 33.5 151t61.5 90q25 0 25 -32q-4 -10 -20 -55q-17 -48 -17 -89q0 -86 66 -119
q47 -23 144 -23q95 0 170 28q87 34 87 87q0 32 -51 104q-36 51 -78 91l57 120q5 11 17 0q74 -109 145 -109q44 0 61 35q1 1 18 65q9 35 31 36q17 1 26 -36q14 -56 21 -68q21 -35 77 -35q65 0 67 50q1 23 -51 87l53 84q5 7 13 16l12 -12q48 -64 48 -148zM708 509l73 73
l73 -73l-73 -72zM870 509l72 73l72 -73l-72 -72zM788 629l71 73l74 -73l-74 -72z" />
    <glyph glyph-name="k" unicode="&#xfe29;" horiz-adv-x="1235" 
d="M1253 0h-73q-39 0 -66 19t-51 62q-47 -81 -106 -81q-78 0 -102 76q-34 -75 -100 -75q-23 0 -45 9q3 -31 3 -58q0 -144 -108 -213q-89 -57 -242 -57q-114 0 -183 56q-73 60 -74 171q-1 61 33.5 151t61.5 90q25 0 25 -32q-4 -10 -20 -55q-17 -48 -17 -89q0 -86 66 -119
q47 -23 144 -23q95 0 170 28q87 34 87 87q0 32 -51 104q-36 51 -78 91l57 120q5 11 17 0q75 -110 145 -110q39 0 56 36q2 2 19 65q9 35 33 36q19 1 26 -36q11 -57 15 -65q18 -35 62 -36q41 -1 58 36q3 5 18 65q9 35 33 36q19 1 26 -36q10 -48 20 -65q22 -35 78 -35h63v-153z
M708 509l73 73l73 -73l-73 -72zM870 509l72 73l72 -73l-72 -72zM788 629l71 73l74 -73l-74 -72z" />
    <glyph glyph-name="l" unicode="&#xfe2a;" horiz-adv-x="861" 
d="M878 0h-68q-73 0 -122 81q-47 -81 -123 -81q-69 0 -117 81q-45 -81 -117 -81q-74 0 -121 81q-46 -81 -143 -81h-82v153h96q54 0 75 35q9 15 22 65q10 36 29 36q22 1 31 -36q6 -27 17 -65q19 -35 72 -36q49 -1 72 36q7 14 21 65q10 35 32 36q20 1 28 -36q10 -52 17 -65
q19 -35 74 -36q46 -1 66 36q4 6 21 65q10 35 33 36q19 1 27 -36q12 -54 19 -65q23 -35 78 -35h63v-153zM287 509l73 73l71 -73l-71 -72zM448 509l72 73l73 -73l-73 -72zM365 629l73 73l72 -73l-72 -72z" />
    <glyph glyph-name="m" unicode="&#xfe2b;" horiz-adv-x="724" 
d="M722 227q0 -82 -33 -146q-42 -80 -120 -81q-73 -1 -121 81q-45 -81 -117 -81q-74 0 -121 81q-46 -81 -143 -81h-82v153h96q54 0 75 35q9 15 22 65q10 36 29 36q22 1 31 -36q6 -27 17 -65q19 -35 72 -36q49 -1 72 36q7 14 21 65q10 35 32 36q20 1 28 -36q11 -56 17 -68
q18 -35 74 -35q74 0 74 50q0 26 -50 87l54 84q4 7 12 16l12 -12q49 -73 49 -148zM287 509l73 73l71 -73l-71 -72zM448 509l72 73l73 -73l-73 -72zM365 629l73 73l72 -73l-72 -72z" />
    <glyph glyph-name="n" unicode="&#x635;" horiz-adv-x="1135" 
d="M1134 271q1 -86 -74 -170q-89 -100 -237 -101q-70 -1 -135 22q4 -25 8 -72q0 -135 -102 -206q-89 -62 -231 -62q-114 0 -183 56q-73 60 -74 171q-1 61 33.5 151t61.5 90q25 0 25 -32q-4 -10 -20 -55q-17 -48 -17 -89q0 -86 66 -119q47 -23 144 -23q93 0 161 30
q79 37 80 99q1 32 -48 99q-40 53 -76 86l54 115q4 9 10 9q4 0 10 -8q37 -61 87 -97q181 235 311 237q60 0 102.5 -37.5t43.5 -93.5zM1037 205q0 35 -34 56q-29 18 -76 18q-77 1 -189 -127q50 -5 93 -6q51 0 114 11q92 16 92 48z" />
    <glyph glyph-name="o" unicode="&#xfe2c;" horiz-adv-x="1200" 
d="M1217 0h-75q-32 0 -64.5 15.5t-48.5 53.5q-83 -69 -198 -69q-84 0 -143 22q4 -25 8 -72q0 -135 -102 -206q-89 -62 -231 -62q-114 0 -183 56q-73 60 -74 171q-1 61 33.5 151t61.5 90q25 0 25 -32q-4 -10 -20 -55q-17 -48 -17 -89q0 -86 66 -119q47 -23 144 -23
q93 0 161 30q79 37 80 99q1 32 -48 99q-40 53 -76 86l54 115q4 9 10 9q4 0 10 -8q37 -61 87 -97q181 235 311 237q60 0 102.5 -37.5t43.5 -93.5q1 -57 -34 -118h117v-153zM1037 205q0 35 -34 56q-29 18 -76 18q-77 1 -189 -127q50 -5 93 -6q51 0 114 11q92 16 92 48z" />
    <glyph glyph-name="p" unicode="&#xfe2d;" horiz-adv-x="813" 
d="M829 0h-75q-81 0 -113 72q-54 -44 -112 -57q-61 -13 -165 -13q-74 0 -123 18t-77 61q-50 -81 -136 -81h-43v153h23q69 0 99 36q15 19 25 65q8 36 25 36q22 0 31 -36q14 -55 20 -65q22 -36 70 -36q70 88 140 152q106 96 183 97q61 0 103 -38t42 -93q0 -60 -33 -118h116
v-153zM650 205q0 37 -38 58q-31 16 -72 16q-77 1 -189 -127q48 -5 91 -6q101 -1 162 22q46 18 46 37z" />
    <glyph glyph-name="q" unicode="&#xfe2e;" horiz-adv-x="749" 
d="M746 271q0 -112 -84 -183q-101 -86 -298 -86q-74 0 -123 18t-77 61q-50 -81 -136 -81h-43v153h23q69 0 99 36q15 19 25 65q8 36 25 36q22 0 31 -36q14 -55 20 -65q22 -36 70 -36q70 88 140 152q106 96 183 97q61 0 103 -38t42 -93zM650 205q0 37 -38 58q-31 16 -72 16
q-77 1 -189 -127q48 -5 91 -6q101 -1 162 22q46 18 46 37z" />
    <glyph glyph-name="r" unicode="&#x636;" horiz-adv-x="1135" 
d="M1134 271q1 -86 -74 -170q-89 -100 -237 -101q-70 -1 -135 22q4 -25 8 -72q0 -135 -102 -206q-89 -62 -231 -62q-114 0 -183 56q-73 60 -74 171q-1 61 33.5 151t61.5 90q25 0 25 -32q-4 -10 -20 -55q-17 -48 -17 -89q0 -86 66 -119q47 -23 144 -23q93 0 161 30
q79 37 80 99q1 32 -48 99q-40 53 -76 86l54 115q4 9 10 9q4 0 10 -8q37 -61 87 -97q181 235 311 237q60 0 102.5 -37.5t43.5 -93.5zM1037 205q0 35 -34 56q-29 18 -76 18q-77 1 -189 -127q50 -5 93 -6q51 0 114 11q92 16 92 48zM959 579l-78 -81l-81 81l81 79z" />
    <glyph glyph-name="s" unicode="&#xfe30;" horiz-adv-x="1200" 
d="M1217 0h-75q-32 0 -64.5 15.5t-48.5 53.5q-83 -69 -198 -69q-84 0 -143 22q4 -25 8 -72q0 -135 -102 -206q-89 -62 -231 -62q-114 0 -183 56q-73 60 -74 171q-1 61 33.5 151t61.5 90q25 0 25 -32q-4 -10 -20 -55q-17 -48 -17 -89q0 -86 66 -119q47 -23 144 -23
q93 0 161 30q79 37 80 99q1 32 -48 99q-40 53 -76 86l54 115q4 9 10 9q4 0 10 -8q37 -61 87 -97q181 235 311 237q60 0 102.5 -37.5t43.5 -93.5q1 -57 -34 -118h117v-153zM1037 205q0 35 -34 56q-29 18 -76 18q-77 1 -189 -127q50 -5 93 -6q51 0 114 11q92 16 92 48z
M959 579l-78 -81l-81 81l81 79z" />
    <glyph glyph-name="t" unicode="&#xfe31;" horiz-adv-x="813" 
d="M829 0h-75q-81 0 -113 72q-54 -44 -112 -57q-61 -13 -165 -13q-74 0 -123 18t-77 61q-50 -81 -136 -81h-43v153h23q69 0 99 36q15 19 25 65q8 36 25 36q22 0 31 -36q14 -55 20 -65q22 -36 70 -36q70 88 140 152q106 96 183 97q61 0 103 -38t42 -93q0 -60 -33 -118h116
v-153zM650 205q0 37 -38 58q-31 16 -72 16q-77 1 -189 -127q48 -5 91 -6q101 -1 162 22q46 18 46 37zM627 579l-80 -81l-79 81l79 79z" />
    <glyph glyph-name="u" unicode="&#xfe32;" horiz-adv-x="749" 
d="M746 271q0 -112 -84 -183q-101 -86 -298 -86q-74 0 -123 18t-77 61q-50 -81 -136 -81h-43v153h23q69 0 99 36q15 19 25 65q8 36 25 36q22 0 31 -36q14 -55 20 -65q22 -36 70 -36q70 88 140 152q106 96 183 97q61 0 103 -38t42 -93zM650 205q0 37 -38 58q-31 16 -72 16
q-77 1 -189 -127q48 -5 91 -6q101 -1 162 22q46 18 46 37zM627 579l-80 -81l-79 81l79 79z" />
    <glyph glyph-name="v" unicode="&#x637;" horiz-adv-x="794" 
d="M790 273q0 -152 -143 -221q-105 -51 -277 -52q-117 -1 -172 29q-64 33 -95 128q76 -6 201 -4v44q0 234 -53 452l110 100q6 -17 61 -165q3 -9 3 -8q0 -4 -5 -5l-42 10q8 -98 8 -150q0 -75 -16 -211q45 51 121 108q100 75 166 75q55 0 94 -37.5t39 -92.5zM699 207
q0 29 -33.5 52t-63.5 23q-101 0 -218 -129h109q67 0 115 8q90 14 91 46z" />
    <glyph glyph-name="w" unicode="&#xfe33;" horiz-adv-x="851" 
d="M868 0h-59q-81 0 -121 69q-81 -49 -182 -62q-51 -7 -164 -7q-188 0 -239 157q76 -6 201 -4v44q0 234 -53 452l110 100q14 -45 60 -165q4 -6 4 -9t-5 -4q2 0 -42 10q8 -98 8 -150q0 -75 -16 -211q45 51 121 108q100 75 166 75q55 0 94 -37.5t39 -92.5q0 -59 -35 -120h113
v-153zM699 207q0 29 -33.5 52t-63.5 23q-101 0 -218 -129h109q67 0 115 8q90 14 91 46z" />
    <glyph glyph-name="x" unicode="&#xfe34;" horiz-adv-x="660" 
d="M675 0h-59q-82 0 -122 68q-54 -43 -149 -58q-60 -10 -168 -10h-194v153h128v44q0 243 -54 452l111 100q12 -37 61 -162q3 -8 3 -12t-4 -4q-7 2 -43 10q9 -90 9 -150q0 -89 -17 -211q41 48 121 108q100 75 166 75q56 0 94.5 -37.5t38.5 -92.5t-34 -120h112v-153zM505 207
q0 29 -35 54q-30 21 -62 21q-99 0 -217 -129h109q143 0 189 30q16 10 16 24z" />
    <glyph glyph-name="y" unicode="&#xfe35;" horiz-adv-x="602" 
d="M597 273q0 -142 -125 -214q-102 -59 -254 -59h-235v153h128v44q0 243 -54 452l111 100q9 -30 61 -162q3 -8 3 -11q-1 -3 -4 -4q-4 0 -43 9q9 -90 9 -150q0 -89 -17 -211q41 48 121 108q100 75 166 75q56 0 94.5 -37.5t38.5 -92.5zM505 207q0 29 -35 54q-30 21 -62 21
q-99 0 -217 -129h109q143 0 189 30q16 10 16 24z" />
    <glyph glyph-name="z" unicode="&#x638;" horiz-adv-x="794" 
d="M790 273q0 -152 -143 -221q-105 -51 -277 -52q-117 -1 -172 29q-64 33 -95 128q76 -6 201 -4v44q0 234 -53 452l110 100q6 -17 61 -165q3 -9 3 -8q0 -4 -5 -5l-42 10q8 -98 8 -150q0 -75 -16 -211q45 51 121 108q100 75 166 75q55 0 94 -37.5t39 -92.5zM699 207
q0 29 -33.5 52t-63.5 23q-101 0 -218 -129h109q67 0 115 8q90 14 91 46zM700 584l-82 -79l-79 79l79 80z" />
    <glyph glyph-name="braceleft" unicode="&#xfe36;" horiz-adv-x="851" 
d="M868 0h-59q-81 0 -121 69q-81 -49 -182 -62q-51 -7 -164 -7q-188 0 -239 157q76 -6 201 -4v44q0 234 -53 452l110 100q14 -45 60 -165q4 -6 4 -9t-5 -4q2 0 -42 10q8 -98 8 -150q0 -75 -16 -211q45 51 121 108q100 75 166 75q55 0 94 -37.5t39 -92.5q0 -59 -35 -120h113
v-153zM699 207q0 29 -33.5 52t-63.5 23q-101 0 -218 -129h109q67 0 115 8q90 14 91 46zM700 584l-82 -79l-79 79l79 80z" />
    <glyph glyph-name="bar" unicode="&#xfe37;" horiz-adv-x="660" 
d="M675 0h-59q-82 0 -122 68q-54 -43 -149 -58q-60 -10 -168 -10h-194v153h128v44q0 243 -54 452l111 100q12 -37 61 -162q3 -8 3 -12t-4 -4q-7 2 -43 10q9 -90 9 -150q0 -89 -17 -211q41 48 121 108q100 75 166 75q56 0 94.5 -37.5t38.5 -92.5t-34 -120h112v-153zM505 207
q0 29 -35 54q-30 21 -62 21q-99 0 -217 -129h109q143 0 189 30q16 10 16 24zM523 584l-81 -79l-80 79l80 80z" />
    <glyph glyph-name="braceright" unicode="&#xfe38;" horiz-adv-x="602" 
d="M597 273q0 -142 -125 -214q-102 -59 -254 -59h-235v153h128v44q0 243 -54 452l111 100q9 -30 61 -162q3 -8 3 -11q-1 -3 -4 -4q-4 0 -43 9q9 -90 9 -150q0 -89 -17 -211q41 48 121 108q100 75 166 75q56 0 94.5 -37.5t38.5 -92.5zM505 207q0 29 -35 54q-30 21 -62 21
q-99 0 -217 -129h109q143 0 189 30q16 10 16 24zM523 584l-81 -79l-80 79l80 80z" />
    <glyph glyph-name="asciitilde" unicode="&#x639;" horiz-adv-x="702" 
d="M694 -217q-57 -102 -274 -104q-143 -2 -231 65q-84 63 -84 168q-1 87 70 156q60 59 152 88q-46 13 -76 45q-34 35 -34 80q0 68 68 143q74 81 154 81q29 0 69 -23q47 -27 68 -69q5 -12 11 -29q0 -5 -7 -8q-6 0 -24 7q-60 15 -102 15q-47 0 -99.5 -18.5t-53.5 -42.5
q0 -26 33 -58q44 -40 127 -41q55 -1 170 27q17 4 19 2q1 -1 -4 -13l-50 -113q-357 -28 -357 -196q0 -86 79 -133q67 -40 185 -41q81 0 178 21q13 3 20 3q-1 0 -7 -12z" />
    <glyph glyph-name="uniFE39" unicode="&#xfe39;" horiz-adv-x="724" 
d="M739 0h-34q-154 0 -287 166q-179 -100 -179 -221q0 -86 79 -133q67 -40 185 -41q81 0 178 21q13 3 20 3q-1 0 -7 -12q-57 -102 -274 -104q-143 -2 -231 65q-84 63 -84 168q-1 166 267 298q-17 22 -46 48q-37 36 -52.5 36t-17.5 18q0 25 30 58q47 51 145 52q60 1 109 -24
q54 -27 54 -75q0 -53 -102 -116q64 -54 199 -54h48v-153z" />
    <glyph glyph-name="uniFE3A" unicode="&#xfe3a;" horiz-adv-x="452" 
d="M469 0h-33q-84 0 -137 33q-31 19 -71 68q-90 -101 -208 -101h-35v153h59q82 0 124 31q-70 93 -96 93q-17 0 -17 20q0 26 28 56q48 53 146 53q57 0 103 -22q59 -27 59 -77q0 -33 -39 -73q-14 -12 -64 -52q34 -29 132 -29h49v-153z" />
    <glyph glyph-name="uniFE3B" unicode="&#xfe3b;" horiz-adv-x="535" 
d="M530 177l-67 -124q-138 -8 -280 -32q-123 -21 -138 -21h-60v153h146q-17 11 -31 42.5t-14 53.5q0 66 76.5 146.5t159.5 80.5q44 0 87.5 -31t66.5 -80q10 -21 10 -28q0 -8 -6 -8q-9 0 -23 7q-66 22 -135 22q-59 0 -101.5 -21t-42.5 -48q0 -23 38 -61q47 -49 114 -49
q126 0 188 9q13 2 16 -2q1 -2 -4 -9z" />
    <glyph glyph-name="afii57434" unicode="&#x63a;" horiz-adv-x="702" 
d="M694 -217q-57 -102 -274 -104q-143 -2 -231 65q-84 63 -84 168q-1 87 70 156q60 59 152 88q-46 13 -76 45q-34 35 -34 80q0 68 68 143q74 81 154 81q29 0 69 -23q47 -27 68 -69q5 -12 11 -29q0 -5 -7 -8q-6 0 -24 7q-60 15 -102 15q-47 0 -99.5 -18.5t-53.5 -42.5
q0 -26 33 -58q44 -40 127 -41q55 -1 170 27q17 4 19 2q1 -1 -4 -13l-50 -113q-357 -28 -357 -196q0 -86 79 -133q67 -40 185 -41q81 0 178 21q13 3 20 3q-1 0 -7 -12zM506 662l-80 -80l-79 80l79 81z" />
    <glyph glyph-name="uniFE3C" unicode="&#xfe3c;" horiz-adv-x="724" 
d="M739 0h-34q-154 0 -287 166q-179 -100 -179 -221q0 -86 79 -133q67 -40 185 -41q81 0 178 21q13 3 20 3q-1 0 -7 -12q-57 -102 -274 -104q-143 -2 -231 65q-84 63 -84 168q-1 166 267 298q-17 22 -46 48q-37 36 -52.5 36t-17.5 18q0 25 30 58q47 51 145 52q60 1 109 -24
q54 -27 54 -75q0 -53 -102 -116q64 -54 199 -54h48v-153zM537 584l-79 -79l-81 79l81 80z" />
    <glyph glyph-name="uniFE3D" unicode="&#xfe3d;" horiz-adv-x="452" 
d="M469 0h-33q-84 0 -137 33q-31 19 -71 68q-90 -101 -208 -101h-35v153h59q82 0 124 31q-70 93 -96 93q-17 0 -17 20q0 26 28 56q48 53 146 53q57 0 103 -22q59 -27 59 -77q0 -33 -39 -73q-14 -12 -64 -52q34 -29 132 -29h49v-153zM309 584l-80 -79l-80 79l80 80z" />
    <glyph glyph-name="uniFE3E" unicode="&#xfe3e;" horiz-adv-x="535" 
d="M530 177l-67 -124q-138 -8 -280 -32q-123 -21 -138 -21h-60v153h146q-17 11 -31 42.5t-14 53.5q0 66 76.5 146.5t159.5 80.5q44 0 87.5 -31t66.5 -80q10 -21 10 -28q0 -8 -6 -8q-9 0 -23 7q-66 22 -135 22q-59 0 -101.5 -21t-42.5 -48q0 -23 38 -61q47 -49 114 -49
q126 0 188 9q13 2 16 -2q1 -2 -4 -9zM386 662l-80 -80l-79 80l79 81z" />
    <glyph glyph-name="afii57441" unicode="&#x641;" horiz-adv-x="900" 
d="M899 246q1 -142 -81 -196q-44 -30 -177 -47q-104 -14 -189 -14q-153 0 -232 35q-114 51 -115 183q-1 35 21 95q27 71 56 71q22 0 22 -25q-2 -11 -9 -31q-10 -29 -10 -49q0 -89 104 -116q48 -12 194 -12q229 0 337 42q19 9 19 31q0 15 -22 15q-74 -8 -106 -8
q-117 0 -118 86q-1 72 37 143q44 84 110 85q92 0 133 -121q25 -74 26 -167zM810 336q-13 30 -40 53t-57 25q-20 0 -34 -13.5t-16 -29.5q0 -42 82 -42q36 0 65 7zM815 679l-79 -82l-80 82l80 79z" />
    <glyph glyph-name="uniFE3F" unicode="&#xfe3f;" horiz-adv-x="993" 
d="M1011 0h-45q-125 0 -219 70q-126 -83 -334 -83q-307 0 -308 220q-1 35 21 95q27 71 56 71q22 0 22 -25q-2 -11 -9 -31q-10 -29 -10 -49q0 -91 102 -118q45 -12 148 -12q159 0 209 23q-39 55 -39 92q0 58 46 127q55 80 120 81q55 1 90 -57q30 -49 30 -111q0 -83 -44 -132
q11 -8 89 -8h75v-153zM829 261q0 22 -25.5 47.5t-48.5 25.5q-27 0 -56 -21.5t-30 -47.5q-1 -19 29.5 -46t50.5 -28q16 0 45 19q35 24 35 51zM832 648l-81 -81l-81 81l81 79z" />
    <glyph glyph-name="uniFE40" unicode="&#xfe40;" horiz-adv-x="463" 
d="M480 0h-41q-50 0 -110 20t-98 50q-119 -70 -206 -70h-40v153h65q56 0 79 8q-40 56 -40 92q0 58 46 127q55 80 120 81q59 1 93 -57q28 -49 28 -111q1 -83 -45 -132q11 -8 90 -8h59v-153zM314 261q0 21 -24.5 47t-49.5 26q-28 0 -55 -20q-30 -22 -31 -49q-1 -19 29 -46
t50 -28q15 0 45 19q36 23 36 51zM312 644l-81 -80l-79 80l79 80z" />
    <glyph glyph-name="uniFE41" unicode="&#xfe41;" horiz-adv-x="376" 
d="M375 246q0 -142 -73 -198q-63 -48 -210 -48h-107v153h122q143 0 188 24q21 11 22 36q0 15 -24 15q-71 -8 -105 -8q-118 0 -118 86q0 74 37 144q43 83 110 84q93 0 133 -121q25 -78 25 -167zM286 336q-11 28 -38 51q-30 25 -59 27q-19 0 -33.5 -13.5t-14.5 -29.5
q0 -42 79 -42q37 0 66 7zM290 680l-80 -79l-79 79l79 80z" />
    <glyph glyph-name="afii57505" unicode="&#x6a4;" horiz-adv-x="900" 
d="M899 246q1 -142 -81 -196q-44 -30 -177 -47q-104 -14 -189 -14q-153 0 -232 35q-114 51 -115 183q-1 35 21 95q27 71 56 71q22 0 22 -25q-2 -11 -9 -31q-10 -29 -10 -49q0 -89 104 -116q48 -12 194 -12q229 0 337 42q19 9 19 31q0 15 -22 15q-74 -8 -106 -8
q-117 0 -118 86q-1 72 37 143q44 84 110 85q92 0 133 -121q25 -74 26 -167zM810 336q-13 30 -40 53t-57 25q-20 0 -34 -13.5t-16 -29.5q0 -42 82 -42q36 0 65 7zM576 652l73 73l73 -73l-73 -72zM738 652l72 73l72 -73l-72 -72zM656 772l71 73l74 -73l-74 -72z" />
    <glyph glyph-name="uniFE42" unicode="&#xfe42;" horiz-adv-x="993" 
d="M1011 0h-45q-125 0 -219 70q-126 -83 -334 -83q-307 0 -308 220q-1 35 21 95q27 71 56 71q22 0 22 -25q-2 -11 -9 -31q-10 -29 -10 -49q0 -91 102 -118q45 -12 148 -12q159 0 209 23q-39 55 -39 92q0 58 46 127q55 80 120 81q55 1 90 -57q30 -49 30 -111q0 -83 -44 -132
q11 -8 89 -8h75v-153zM829 261q0 22 -25.5 47.5t-48.5 25.5q-27 0 -56 -21.5t-30 -47.5q-1 -19 29.5 -46t50.5 -28q16 0 45 19q35 24 35 51zM609 586l73 73l73 -73l-73 -72zM771 586l72 73l72 -73l-72 -72zM689 706l71 73l74 -73l-74 -72z" />
    <glyph glyph-name="uniFE43" unicode="&#xfe43;" horiz-adv-x="463" 
d="M480 0h-41q-50 0 -110 20t-98 50q-119 -70 -206 -70h-40v153h65q56 0 79 8q-40 56 -40 92q0 58 46 127q55 80 120 81q59 1 93 -57q28 -49 28 -111q1 -83 -45 -132q11 -8 90 -8h59v-153zM314 261q0 21 -24.5 47t-49.5 26q-28 0 -55 -20q-30 -22 -31 -49q-1 -19 29 -46
t50 -28q15 0 45 19q36 23 36 51zM103 586l73 73l73 -73l-73 -72zM265 586l72 73l72 -73l-72 -72zM183 706l71 73l74 -73l-74 -72z" />
    <glyph glyph-name="uniFE44" unicode="&#xfe44;" horiz-adv-x="376" 
d="M375 246q0 -142 -73 -198q-63 -48 -210 -48h-107v153h122q143 0 188 24q21 11 22 36q0 15 -24 15q-71 -8 -105 -8q-118 0 -118 86q0 74 37 144q43 83 110 84q93 0 133 -121q25 -78 25 -167zM286 336q-11 28 -38 51q-30 25 -59 27q-19 0 -33.5 -13.5t-14.5 -29.5
q0 -42 79 -42q37 0 66 7zM59 663l73 73l73 -73l-73 -72zM221 663l72 73l72 -73l-72 -72zM139 783l71 73l74 -73l-74 -72z" />
    <glyph glyph-name="afii57442" unicode="&#x642;" horiz-adv-x="745" 
d="M741 -21q0 -278 -378 -278q-138 0 -203 75q-53 60 -54 151q-1 63 33 152t62 89q25 0 25 -33q-4 -8 -20 -52q-17 -48 -17 -91q0 -68 40 -100q48 -39 170 -42q89 -2 171 21q112 32 112 96q0 16 -7 34q-5 0 -48 -1h-47q-73 0 -106 14q-52 21 -52 84q0 94 42 168
q47 82 105 83q79 1 130 -88q42 -76 42 -176v-106zM642 144q-12 29 -38 52q-29 25 -58 25q-20 0 -34.5 -14.5t-15.5 -28.5q0 -40 82 -42q20 0 64 8zM711 515l-72 -73l-72 73l72 72zM549 515l-70 -73l-75 73l75 72z" />
    <glyph glyph-name="uniFE45" unicode="&#xfe45;" horiz-adv-x="867" 
d="M881 0h-141q0 -6 1 -17v-16q0 -266 -378 -266q-138 0 -203 75q-53 60 -54 151q-1 63 33 152t62 89q25 0 25 -33q-4 -8 -20 -52q-17 -48 -17 -91q0 -68 40 -100q48 -39 170 -42q89 -2 171 21q112 32 112 96q0 16 -7 34q-5 0 -48 -1h-47q-73 0 -106 14q-52 21 -52 84
q0 94 42 168q47 82 105 83q72 1 122 -82q35 -58 39 -114h151v-153zM642 144q-12 29 -38 52q-29 25 -58 25q-20 0 -34.5 -14.5t-15.5 -28.5q0 -40 82 -42q20 0 64 8zM708 515l-72 -73l-73 73l73 72zM547 515l-73 -73l-72 73l72 72z" />
    <glyph glyph-name="uniFE46" unicode="&#xfe46;" horiz-adv-x="463" 
d="M480 0h-41q-50 0 -110 20t-98 50q-119 -70 -206 -70h-40v153h65q56 0 79 8q-40 56 -40 92q0 58 46 127q55 80 120 81q59 1 93 -57q28 -49 28 -111q1 -83 -45 -132q11 -8 90 -8h59v-153zM314 261q0 21 -24.5 47t-49.5 26q-28 0 -55 -20q-30 -22 -31 -49q-1 -19 29 -46
t50 -28q15 0 45 19q36 23 36 51zM388 614l-72 -73l-73 73l73 71zM228 614l-73 -73l-72 73l72 71z" />
    <glyph glyph-name="uniFE47" unicode="&#xfe47;" horiz-adv-x="376" 
d="M375 246q0 -142 -73 -198q-63 -48 -210 -48h-107v153h122q143 0 188 24q21 11 22 36q0 15 -24 15q-71 -8 -105 -8q-118 0 -118 86q0 74 37 144q43 83 110 84q93 0 133 -121q25 -78 25 -167zM286 336q-11 28 -38 51q-30 25 -59 27q-19 0 -33.5 -13.5t-14.5 -29.5
q0 -42 79 -42q37 0 66 7zM358 680l-73 -73l-73 73l73 72zM196 680l-73 -73l-72 73l72 72z" />
    <glyph glyph-name="afii57443" unicode="&#x643;" horiz-adv-x="694" 
d="M692 583q2 -6 2 -8q0 -8 -45 1q20 -244 20 -410q0 -40 -25 -86q-23 -39 -49 -57q-34 -23 -101 -30q-33 -3 -165 -3q-208 0 -221 42q-1 7 -2 26q0 50 10 114q0 18 14 19q10 0 13 -12q8 -27 76 -35q18 -2 129 -2q241 0 241 27q0 67 -31 256q-16 94 -40 221l104 97
q7 9 12 -3q14 -39 58 -157zM430 388q0 -36 -27 -78q-32 -48 -78 -48q-48 0 -73 23l23 58q24 -17 64 -17q41 0 41 29q0 5 -43.5 11t-43.5 31q0 31 32 99q26 57 58 57q19 0 33 -18t14 -40q0 -24 -17 -24q-10 0 -18 8.5t-22 8.5q-28 0 -28 -34q0 -16 21 -19q40 -7 42 -8
q22 -9 22 -39z" />
    <glyph glyph-name="uniFE48" unicode="&#xfe48;" horiz-adv-x="972" 
d="M989 0h-79q-58 0 -97 28.5t-47 88.5q-68 -128 -314 -128q-194 0 -272 52q-74 50 -75 171q-1 56 36 130q32 66 50 66q24 0 24 -24q-4 -11 -18 -43q-17 -38 -17 -63q0 -93 95 -122q47 -14 208 -14q84 0 152 14q112 23 113 76q1 103 -10 241q-11 143 -20 172l111 96q5 5 9 5
q6 -2 6 -7v-462q0 -78 23 -103q19 -21 69 -21h53v-153zM563 403q0 -37 -28 -77q-35 -49 -78 -50q-48 -1 -73 23l23 60q26 -19 64 -20q40 -1 42 32q0 4 -44 10t-44 30q0 30 32 99q26 58 58 58q17 0 33 -20q11 -15 15 -39q0 -24 -17 -24q-11 0 -18 9.5t-23 9.5q-29 0 -29 -35
q0 -16 23 -20q19 -3 41 -7q20 -11 23 -39z" />
    <glyph glyph-name="uni06A9" unicode="&#x6a9;" horiz-adv-x="903" 
d="M1060 734l-24 -133q-73 -24 -313 -109q75 -74 106 -122q44 -68 44 -141q0 -129 -84 -193q-28 -21 -148 -35q-100 -12 -189 -12q-196 0 -271 49t-76 169q-1 35 21 95q27 71 56 71q22 0 22 -25q-2 -11 -9 -31q-10 -29 -10 -49q0 -91 92 -116q45 -12 206 -12q142 0 176 2
q147 11 147 55q0 38 -73 118q-70 75 -125 109l30 152q149 59 422 158z" />
    <glyph glyph-name="uniFE49" unicode="&#xfe49;" horiz-adv-x="1198" 
d="M1212 0h-90q-56 0 -121 55q-43 37 -130 134q-5 -93 -82 -153q-27 -20 -148 -35q-100 -12 -189 -12q-196 0 -271 49t-76 169q-1 35 21 95q27 71 56 71q22 0 22 -25q-2 -11 -9 -31q-10 -29 -10 -49q0 -91 92 -116q45 -12 206 -12q142 0 176 2q147 11 147 55q0 38 -73 118
q-70 75 -125 109l30 152q277 109 449 164l-31 -135q-120 -38 -333 -113q101 -96 197 -198q83 -90 110 -109q43 -32 91 -32h91v-153z" />
    <glyph glyph-name="uniFE4A" unicode="&#xfe4a;" horiz-adv-x="640" 
d="M656 0h-107q-54 0 -121 55q-35 29 -129 134q-10 -189 -222 -189h-92v153h72q175 0 175 44q0 41 -72 121q-59 64 -124 106l29 152q279 110 450 164l-31 -135q-114 -36 -334 -113q62 -61 198 -198q84 -91 109 -109q42 -32 91 -32h108v-153z" />
    <glyph glyph-name="uniFE4B" unicode="&#xfe4b;" horiz-adv-x="328" 
d="M487 734l-24 -133q-61 -21 -313 -109q67 -65 105 -122q46 -70 46 -141q0 -229 -249 -229h-67v153h46q125 0 167 11q34 9 34 33q0 37 -72 118q-66 72 -124 109l29 152q173 68 422 158z" />
    <glyph glyph-name="afii57509" unicode="&#x6af;" horiz-adv-x="903" 
d="M1044 771l-12 -65q-177 -40 -359 -97l19 68q142 43 352 94zM1067 655l-35 -128q-155 -25 -305 -67q58 -43 99 -101q47 -69 47 -130q0 -129 -84 -193q-28 -21 -148 -35q-100 -12 -189 -12q-196 0 -271 49t-76 169q-1 35 21 95q27 71 56 71q22 0 22 -25q-2 -11 -9 -31
q-10 -29 -10 -49q0 -91 92 -116q45 -12 206 -12q142 0 176 2q147 11 147 55q0 36 -73 108q-69 66 -124 99l27 135q119 44 431 116z" />
    <glyph glyph-name="uniFE4C" unicode="&#xfe4c;" horiz-adv-x="1198" 
d="M1068 777l-13 -63q-171 -36 -381 -101l19 66q127 39 375 98zM1212 0h-90q-56 0 -121 55q-43 37 -130 134q-5 -101 -76 -153q-28 -21 -150 -35q-103 -12 -193 -12q-196 0 -271 49t-76 169q-1 35 21 95q27 71 56 71q22 0 22 -25q-2 -11 -9 -31q-10 -29 -10 -49
q0 -91 92 -116q45 -12 206 -12q142 0 176 2q147 11 147 55q0 40 -80 115q-64 61 -118 94l30 139q280 86 454 113l-38 -128q-182 -28 -331 -68q95 -78 193 -175q87 -85 113 -102q47 -32 92 -32h91v-153z" />
    <glyph glyph-name="uniFE4D" unicode="&#xfe4d;" horiz-adv-x="625" 
d="M496 777l-13 -63q-213 -51 -383 -101l21 66q133 41 375 98zM640 0h-91q-54 0 -121 55q-35 29 -129 134q-7 -101 -77 -153q-20 -15 -92 -26q-64 -10 -110 -10h-35v153h35q212 0 212 44q0 34 -72 109q-54 55 -124 100l29 139q282 86 455 113l-39 -128q-182 -28 -331 -68
q81 -66 193 -175q85 -83 114 -102q46 -32 91 -32h92v-153z" />
    <glyph glyph-name="uniFE4E" unicode="&#xfe4e;" horiz-adv-x="330" 
d="M472 771l-13 -65q-186 -43 -359 -97l20 68q148 45 352 94zM495 655l-35 -128q-155 -25 -305 -67q56 -42 98 -102q48 -70 48 -129q0 -123 -64 -178q-60 -51 -185 -51h-67v153h46q125 0 167 11q34 9 34 33q0 35 -72 108q-64 63 -123 99l26 135q122 45 432 116z" />
    <glyph glyph-name="afii57444" unicode="&#x644;" horiz-adv-x="715" 
d="M712 573q-1 -2 -6 -2q-10 0 -37 5q8 -129 6 -552q-1 -312 -327 -312q-243 0 -245 218q0 50 26 121.5t50 72.5q22 1 22 -28q0 -10 -11 -46.5t-11 -58.5q0 -129 184 -129q123 0 189 40q44 26 44 51q1 66 -26 353q-25 263 -41 340l108 97q9 11 13 -3q22 -55 62 -167z" />
    <glyph glyph-name="uniFE4F" unicode="&#xfe4f;" horiz-adv-x="793" 
d="M809 0h-39q-69 0 -100 44q0 -141 -44 -212q-74 -120 -278 -120q-243 0 -245 218q0 50 26 121.5t50 72.5q22 1 22 -28q0 -10 -11 -46.5t-11 -58.5q0 -129 184 -129q61 0 132 19q98 26 98 72q0 184 -14 413q-13 207 -25 276l112 97l3 4q8 4 9 -7l4 -474q1 -109 94 -109h33
v-153z" />
    <glyph glyph-name="brokenbar" unicode="&#xfe58;" horiz-adv-x="656" 
d="M652 584q1 -1 1 -3q0 -6 -48 2q0 -152 -48 -261q-31 -70 -66 -100q39 -63 39 -111q0 -90 -62 -122q-44 -22 -186 -22q-45 0 -82 5l45 145q79 37 146 103q-73 95 -212 228q-12 -41 -15 -44q-2 0 -8 7q-91 121 -92 137q0 48 30 130q2 10 4 12q2 -1 9 -6q106 -79 343 -395
q46 42 46 144v110q0 42 -17 110l99 97q5 6 9 -3q30 -91 65 -163zM463 107q-8 33 -33 58q-39 -29 -91 -66q17 -5 61 -4q44 0 63 12z" />
    <glyph glyph-name="section" unicode="&#xfe59;" horiz-adv-x="752" 
d="M767 0h-37q-104 0 -147 80q-27 52 -34 184q-68 -194 -153 -265q-12 -10 -253 -24q-43 -3 -45 1q0 5 37 23q96 46 185.5 105.5t89.5 88.5q0 25 -60 101q-72 89 -171 157l-6 -51q-23 23 -73 75q-45 51 -45 67q0 57 15 124q2 11 6 13q3 0 11 -6q196 -140 295 -275
q66 -90 76 -164q84 101 84 336q0 46 -3 96l89 70q10 6 13 9q4 0 4 -17v-484q0 -91 96 -91h26v-153z" />
    <glyph glyph-name="dieresis" unicode="&#xfe5a;" horiz-adv-x="364" 
d="M380 0h-94q-39 0 -76 24q-33 22 -43 51q-18 -30 -51 -52.5t-65 -22.5h-66v153h65q84 0 84 80q0 87 -8.5 227.5t-16.5 178.5l117 108q7 10 7 -2v-508q0 -84 84 -84h63v-153z" />
    <glyph glyph-name="copyright" unicode="&#xfe5b;" horiz-adv-x="212" 
d="M208 583q4 -7 4 -10q-1 -2 -6 -2q-10 0 -37 5q12 -197 10 -399q0 -78 -41 -126q-44 -51 -110 -51h-43v153h39q71 0 71 54v14q-18 286 -56 425l99 97q7 9 14 -3q10 -37 56 -157z" />
    <glyph glyph-name="ordfeminine" unicode="&#x645;" horiz-adv-x="572" 
d="M571 205q1 -45 -26 -102q-35 -71 -103 -72q-35 -1 -106 13t-105 14q-41 0 -41 -25q0 -7 1 -10q18 -176 13 -239q-2 -13 -25 -50q-6 -10 -27 -46q-8 -14 -12 -14q-7 0 -8 22q-8 124 -16 223q-11 114 -11 138q-2 59 40 95q39 32 99 34q0 8 -2.5 25t-2.5 27q0 39 39 91
q45 59 96 59q58 1 130 -70q66 -66 67 -113zM480 171q-27 32 -63 58q-45 32 -78 32q-29 0 -30 -31q-1 -45 -2 -40q3 -10 12 -13q49 -10 149 -28q18 -4 18 6q0 8 -6 16z" />
    <glyph glyph-name="guillemotleft" unicode="&#xfe5c;" horiz-adv-x="681" 
d="M699 0h-49q-58 0 -82 24q0 -179 -104 -179q-66 0 -109 57q-50 67 -50 196h-48q-38 0 -50.5 -10.5t-13.5 -36.5q-1 -9 1 -15q16 -181 10 -252q-2 -13 -25 -50q-6 -10 -27 -46q-8 -14 -12 -14q-7 0 -8 22q-7 125 -16 220l-11 120q0 98 59 148q55 47 153 47l26 80
q141 -108 153 -115q70 -43 152 -43h51v-153zM508 15q1 24 -45 61q-31 25 -93 76v-22q0 -58 20 -100q26 -53 79 -53q38 0 39 38z" />
    <glyph glyph-name="logicalnot" unicode="&#xfe5d;" horiz-adv-x="537" 
d="M553 0h-56q-30 0 -60 23t-41 56q-33 -91 -119 -91q-77 0 -131 86q-37 -74 -111 -74h-50v153h50q42 0 61 5q12 9 12 25v11q-5 59 35 112q44 58 110 58q88 0 133 -99q18 -41 38 -83q17 -30 59 -30h70v-152zM345 158q2 37 -27.5 84t-58.5 47q-39 0 -40 -52q-1 -50 26 -94.5
t58 -45.5q40 -1 42 61z" />
    <glyph glyph-name="uniFE5E" unicode="&#xfe5e;" horiz-adv-x="418" 
d="M416 124q0 -58 -37 -97t-97 -39q-82 0 -136 86q-37 -74 -111 -74h-50v153h50q42 0 61 5q12 9 12 25v11q-5 58 36 111q44 57 110 57q85 0 128 -80q34 -64 34 -158zM345 158q2 37 -27.5 84t-58.5 47q-39 0 -40 -52q-1 -50 26 -94.5t58 -45.5q40 -1 42 61z" />
    <glyph glyph-name="registered" unicode="&#x646;" horiz-adv-x="735" 
d="M734 -22q0 -157 -85.5 -226t-285.5 -70q-114 0 -183 56q-73 60 -74 171q-1 61 33.5 151t61.5 90q25 0 25 -32q-4 -10 -20 -55q-17 -48 -17 -89q0 -86 66 -119q47 -23 144 -23q91 0 160 18q109 28 110 94q0 32 -45 104q-41 64 -73 93l62 126q6 13 15 0q106 -151 106 -289z
M492 348l-82 -81l-80 81l80 79z" />
    <glyph glyph-name="overscore" unicode="&#xfe5f;" horiz-adv-x="814" 
d="M832 0h-58q-42 0 -64 14q3 -28 3 -58q0 -145 -107 -214q-89 -59 -243 -60q-114 -1 -183 56q-73 60 -74 171q-1 61 33.5 151t61.5 90q25 0 25 -32q-4 -10 -20 -55q-17 -48 -17 -89q0 -86 66 -119q47 -23 144 -23q95 0 170 28q87 34 87 87q0 32 -51 104q-36 51 -78 91
l57 120q5 11 17 0q37 -57 60 -77q36 -32 85 -32h86v-153zM475 351l-79 -81l-81 81l81 79z" />
    <glyph glyph-name="degree" unicode="&#xfe60;" horiz-adv-x="422" 
d="M438 0h-55q-46 0 -88.5 24t-65.5 63q-21 -39 -64 -63t-88 -24h-92v153h70q86 0 119 38q19 23 27 72q6 38 28 38q20 1 27 -38q8 -43 18 -62q15 -28 47 -40q23 -8 56 -8h61v-153zM255 529l-79 -81l-80 81l80 79z" />
    <glyph glyph-name="plusminus" unicode="&#xfe61;" horiz-adv-x="219" 
d="M217 231q0 -95 -40 -157q-47 -74 -136 -74h-56v153h66q83 0 84 31q1 28 -66 101q-7 8 0 19l69 96q8 11 18 3q23 -25 42 -73t19 -99zM213 581l-80 -80l-81 80l81 81z" />
    <glyph glyph-name="twosuperior" unicode="&#x648;" horiz-adv-x="462" 
d="M461 23q0 -152 -106 -267q-32 -35 -41 -35q-146 0 -237 28q-14 7 -1 12q104 39 206 119q109 87 109 144h-39q-30 0 -40 -1q-60 0 -89 8q-49 13 -66 53q-9 21 -10 50q0 60 41 143q48 97 113 97q81 0 125 -94q35 -74 35 -164v-93zM370 172q-14 37 -51 61q-25 17 -45 18
q-18 1 -35 -14q-13 -11 -15 -31q0 -40 66 -41q27 0 80 7z" />
    <glyph glyph-name="threesuperior" unicode="&#xfe62;" horiz-adv-x="543" 
d="M560 0h-103q0 -86 -35 -160q-25 -54 -68 -104q-31 -36 -40 -37q-146 0 -237 30q-12 5 -1 12q108 39 206 117q109 87 109 144h-79q-80 0 -115 19q-49 26 -50 92q0 58 41 142q48 98 113 98q62 0 105 -61q37 -53 51 -139h103v-153zM370 152q-11 27 -39.5 52t-56.5 25
q-22 0 -35 -13t-15 -31q0 -40 66 -41q30 0 80 8z" />
    <glyph glyph-name="acute" unicode="&#x624;" horiz-adv-x="462" 
d="M461 23q0 -152 -106 -267q-32 -35 -41 -35q-146 0 -237 28q-14 7 -1 12q104 39 206 119q109 87 109 144h-39q-30 0 -40 -1q-60 0 -89 8q-49 13 -66 53q-9 21 -10 50q0 60 41 143q48 97 113 97q81 0 125 -94q35 -74 35 -164v-93zM370 172q-14 37 -51 61q-25 17 -45 18
q-18 1 -35 -14q-13 -11 -15 -31q0 -40 66 -41q27 0 80 7zM388 628q4 -10 1 -31q-2 -20 -6 -27q-83 -21 -209 -76v43q16 10 55 30q-14 5 -29.5 26t-16.5 36q0 36 40 73t76 38q19 1 41.5 -15t22.5 -29q0 -22 -18 -24q-7 0 -26 8t-33 8q-17 0 -33 -9.5t-16 -21.5
q0 -21 20.5 -36.5t41.5 -15.5q19 0 48 10q19 6 41 13z" />
    <glyph glyph-name="mu1" unicode="&#xfe63;" horiz-adv-x="543" 
d="M560 0h-103q0 -86 -35 -160q-25 -54 -68 -104q-31 -36 -40 -37q-146 0 -237 30q-12 5 -1 12q108 39 206 117q109 87 109 144h-79q-80 0 -115 19q-49 26 -50 92q0 58 41 142q48 98 113 98q62 0 105 -61q37 -53 51 -139h103v-153zM370 152q-11 27 -39.5 52t-56.5 25
q-22 0 -35 -13t-15 -31q0 -40 66 -41q30 0 80 8zM388 606q4 -7 1 -28q-2 -24 -6 -29q-83 -21 -209 -76v44q4 2 22.5 11.5t32.5 17.5q-11 4 -28 24t-18 38q0 33 39.5 71.5t76.5 38.5q18 0 41 -13t23 -30q0 -22 -18 -24q-8 0 -25 8t-34 8q-14 0 -30 -8q-19 -9 -19 -22
q0 -21 20.5 -37.5t41.5 -16.5q13 0 48 11q13 4 25 8z" />
    <glyph glyph-name="paragraph" unicode="&#x647;" horiz-adv-x="450" 
d="M449 185q0 -88 -50 -137t-133 -49q-91 0 -133 52q-28 35 -28 85q0 63 47 155t98 128q92 -36 133 -74q66 -61 66 -160zM383 186q-57 69 -163 103q-38 -43 -40 -99q0 -29 41 -45q30 -11 66 -12q58 -1 91 23q19 13 5 30z" />
    <glyph glyph-name="middot" unicode="&#xfe64;" horiz-adv-x="580" 
d="M596 0h-73q-96 0 -139 144l-50 -81q-229 0 -229 80q0 21 16 72q15 46 22 51q68 67 183 112q-5 19 -20 57l83 95q7 -16 54 -256q16 -82 41 -106q16 -15 56 -15h56v-153zM375 188q-9 32 -33 117q-122 -52 -144 -85q21 -32 177 -32z" />
    <glyph glyph-name="cedilla" unicode="&#x629;" horiz-adv-x="450" 
d="M449 185q0 -88 -50 -137t-133 -49q-91 0 -133 52q-28 35 -28 85q0 63 47 155t98 128q92 -36 133 -74q66 -61 66 -160zM383 186q-57 69 -163 103q-38 -43 -40 -99q0 -29 41 -45q30 -11 66 -12q58 -1 91 23q19 13 5 30zM392 602l-71 -73l-72 73l72 71zM231 602l-73 -73
l-72 73l72 71z" />
    <glyph glyph-name="onesuperior" unicode="&#xfe65;" horiz-adv-x="580" 
d="M596 0h-73q-96 0 -139 144l-50 -81q-229 0 -229 80q0 21 16 72q15 46 22 51q68 67 183 112q-5 19 -20 57l83 95q7 -16 54 -256q16 -82 41 -106q16 -15 56 -15h56v-153zM375 188q-9 32 -33 117q-122 -52 -144 -85q21 -32 177 -32zM498 669l-72 -73l-73 73l73 72zM338 669
l-73 -73l-72 73l72 72z" />
    <glyph glyph-name="ordmasculine" unicode="&#x6c0;" horiz-adv-x="450" 
d="M449 185q0 -88 -50 -137t-133 -49q-91 0 -133 52q-28 35 -28 85q0 63 47 155t98 128q92 -36 133 -74q66 -61 66 -160zM383 186q-57 69 -163 103q-38 -43 -40 -99q0 -29 41 -45q30 -11 66 -12q58 -1 91 23q19 13 5 30zM350 629q1 -8 0 -29q-2 -23 -8 -29q-82 -22 -208 -76
v44q16 8 56 29q-16 6 -31 25.5t-15 36.5q0 33 38.5 71.5t76.5 38.5q21 0 42.5 -14t23.5 -29q0 -23 -20 -24q-6 0 -25.5 8t-33.5 8q-16 0 -32.5 -9.5t-16.5 -21.5q0 -18 19 -33q19 -20 43 -20q15 0 52 13q19 6 39 11z" />
    <glyph glyph-name="guillemotright" unicode="&#xfe66;" horiz-adv-x="580" 
d="M596 0h-73q-96 0 -139 144l-50 -81q-229 0 -229 80q0 21 16 72q15 46 22 51q68 67 183 112q-5 19 -20 57l83 95q7 -16 54 -256q16 -82 41 -106q16 -15 56 -15h56v-153zM375 188q-9 32 -33 117q-122 -52 -144 -85q21 -32 177 -32zM372 645q1 -9 0 -30q-2 -22 -8 -28
q-96 -26 -208 -77v44q16 8 56 29q-18 9 -29 23q-17 20 -17 40q0 34 40 72.5t75 38.5q17 0 40.5 -14t25.5 -30q0 -24 -19 -24q-10 0 -26.5 7.5t-33.5 7.5q-20 0 -34.5 -10t-14.5 -19q0 -20 20.5 -36.5t41.5 -16.5q18 0 47 8q15 6 44 15z" />
    <glyph glyph-name="onequarter" unicode="&#xfe67;" horiz-adv-x="552" 
d="M568 0h-53q-66 0 -85 -4q-43 -10 -43 -44q0 -50 99 -94l-50 -139q-222 64 -301 225q-10 33 -23 66q-54 -10 -93 -10h-34v153h113q0 154 128 331q41 -52 78 -125q44 -90 44 -152q0 -164 -150 -187q34 -66 124 -115q-6 91 46 166q56 82 145 82h55v-153zM277 171
q0 28 -26 78q-18 34 -39 58q-46 -64 -46 -151q40 0 111 15z" />
    <glyph glyph-name="onehalf" unicode="&#xfe68;" horiz-adv-x="528" 
d="M527 209q0 -54 -36 -115q-40 -69 -91 -69q-25 0 -89 30q-34 15 -70 31q51 0 -60 -43t-146 -43h-50v153h48q50 0 65 12q-30 23 -30 68q0 94 111 150q-23 20 -54 30l58 119q149 -75 225 -136q119 -95 119 -187zM459 177q0 26 -45 62q-8 5 -59 40q4 -9 4 -23q0 -47 -41 -83
q54 -37 107 -37q34 0 34 41zM298 274q0 19 -17 40.5t-36 23.5q-23 0 -54 -23q-34 -25 -34 -47q0 -20 32 -40.5t48 -20.5q22 0 41.5 22.5t19.5 44.5z" />
    <glyph glyph-name="threequarters" unicode="&#x6cc;" horiz-adv-x="815" 
d="M812 288q5 -32 -1 -34q-6 0 -17 8q-29 15 -98 15q-75 0 -128 -49q-41 -38 -41 -66q0 -27 43 -41q20 -7 93 -16q60 -9 85 -28q34 -27 34 -92q0 -282 -395 -282q-280 0 -281 233q-1 60 33.5 150.5t61.5 90.5q25 0 25 -34q-4 -9 -20.5 -55t-16.5 -88q0 -150 224 -150
q103 0 183 19q117 27 117 75q0 27 -68 34q-100 11 -128 22q-69 27 -69 98q0 80 70 187q78 119 166 119q57 0 97 -50q25 -31 31 -66z" />
    <glyph glyph-name="questiondown" unicode="&#xfe69;" horiz-adv-x="846" 
d="M860 0h-50q-30 0 -98 10q-61 9 -93 9t-61 -11q-24 -12 -24 -29q0 -13 112 -25q69 -8 93 -22q35 -14 35 -53q0 -122 -133 -178q-94 -39 -237 -39q-298 0 -299 219q-1 39 32 128q36 99 65 99q28 0 28 -24q0 -12 -16.5 -46.5t-16.5 -85.5q0 -96 97 -129q58 -20 192 -20
q43 0 118 13q93 16 93 35q0 12 -61 16q-85 6 -116 14q-61 17 -61 61q0 66 61 128q82 83 226 83h114v-153z" />
    <glyph glyph-name="Agrave" unicode="&#x64a;" horiz-adv-x="815" 
d="M812 288q5 -32 -1 -34q-6 0 -17 8q-29 15 -98 15q-75 0 -128 -49q-41 -38 -41 -66q0 -27 43 -41q20 -7 93 -16q60 -9 85 -28q34 -27 34 -92q0 -282 -395 -282q-280 0 -281 233q-1 60 33.5 150.5t61.5 90.5q25 0 25 -34q-4 -9 -20.5 -55t-16.5 -88q0 -150 224 -150
q103 0 183 19q117 27 117 75q0 27 -68 34q-100 11 -128 22q-69 27 -69 98q0 80 70 187q78 119 166 119q57 0 97 -50q25 -31 31 -66zM595 -426l-71 -72l-73 72l73 72zM435 -426l-73 -72l-73 72l73 72z" />
    <glyph glyph-name="Aacute" unicode="&#xfe6a;" horiz-adv-x="846" 
d="M860 0h-50q-30 0 -98 10q-61 9 -93 9t-61 -11q-24 -12 -24 -29q0 -13 112 -25q69 -8 93 -22q35 -14 35 -53q0 -122 -133 -178q-94 -39 -237 -39q-298 0 -299 219q-1 39 32 128q36 99 65 99q28 0 28 -24q0 -12 -16.5 -46.5t-16.5 -85.5q0 -96 97 -129q58 -20 192 -20
q43 0 118 13q93 16 93 35q0 12 -61 16q-85 6 -116 14q-61 17 -61 61q0 66 61 128q82 83 226 83h114v-153zM595 -450l-71 -73l-73 73l73 72zM435 -450l-73 -73l-73 73l73 72z" />
    <glyph glyph-name="Acircumflex" unicode="&#xfe6b;" horiz-adv-x="422" 
d="M438 0h-55q-46 0 -88.5 24t-65.5 63q-21 -39 -64 -63t-88 -24h-92v153h70q86 0 119 38q19 23 27 72q6 38 28 38q20 1 27 -38q8 -43 18 -62q15 -28 47 -40q23 -8 56 -8h61v-153zM349 -177l-72 -73l-73 73l73 72zM188 -177l-72 -73l-73 73l73 72z" />
    <glyph glyph-name="Atilde" unicode="&#xfe6c;" horiz-adv-x="316" 
d="M217 231q0 -95 -40 -157q-47 -74 -136 -74h-56v153h66q83 0 84 31q1 28 -66 101q-7 8 0 19l69 96q8 11 18 3q23 -25 42 -73t19 -99zM323 -177l-72 -73l-73 73l73 72zM161 -177l-72 -73l-72 73l72 72z" />
    <glyph glyph-name="Adieresis" unicode="&#x626;" horiz-adv-x="815" 
d="M812 288q5 -32 -1 -34q-6 0 -17 8q-29 15 -98 15q-75 0 -128 -49q-41 -38 -41 -66q0 -27 43 -41q20 -7 93 -16q60 -9 85 -28q34 -27 34 -92q0 -282 -395 -282q-280 0 -281 233q-1 60 33.5 150.5t61.5 90.5q25 0 25 -34q-4 -9 -20.5 -55t-16.5 -88q0 -150 224 -150
q103 0 183 19q117 27 117 75q0 27 -68 34q-100 11 -128 22q-69 27 -69 98q0 80 70 187q78 119 166 119q57 0 97 -50q25 -31 31 -66zM433 378q2 -9 0 -29q-1 -21 -7 -29q-83 -20 -207 -75v43q24 13 55 29q-11 4 -28.5 24t-17.5 40q0 30 38.5 69t76.5 41q22 0 43 -15t22 -30
q0 -24 -19 -24q-7 0 -27 8t-32 8q-14 0 -30 -8q-19 -9 -19 -22q0 -17 17.5 -35t44.5 -18q22 0 46 10q20 6 44 13z" />
    <glyph glyph-name="Aring" unicode="&#xfe6d;" horiz-adv-x="846" 
d="M860 0h-50q-30 0 -98 10q-61 9 -93 9t-61 -11q-24 -12 -24 -29q0 -13 112 -25q69 -8 93 -22q35 -14 35 -53q0 -122 -133 -178q-94 -39 -237 -39q-298 0 -299 219q-1 39 32 128q36 99 65 99q28 0 28 -24q0 -12 -16.5 -46.5t-16.5 -85.5q0 -96 97 -129q58 -20 192 -20
q43 0 118 13q93 16 93 35q0 12 -61 16q-85 6 -116 14q-61 17 -61 61q0 66 61 128q82 83 226 83h114v-153zM433 312q2 -9 0 -29q-1 -21 -7 -29q-83 -20 -207 -75v43q24 13 55 29q-11 4 -28.5 24t-17.5 40q0 30 38.5 69t76.5 41q22 0 43 -15t22 -30q0 -24 -19 -24q-7 0 -27 8
t-32 8q-14 0 -30 -8q-19 -9 -19 -22q0 -17 17.5 -35t44.5 -18q22 0 46 10q20 6 44 13z" />
    <glyph glyph-name="AE" unicode="&#xfe6e;" horiz-adv-x="422" 
d="M438 0h-55q-46 0 -88.5 24t-65.5 63q-21 -39 -64 -63t-88 -24h-92v153h70q86 0 119 38q19 23 27 72q6 38 28 38q20 1 27 -38q8 -43 18 -62q15 -28 47 -40q23 -8 56 -8h61v-153zM282 541q3 -7 1 -29q-3 -24 -7 -29q-78 -18 -208 -75v43q5 3 23.5 12.5t31.5 16.5
q-14 6 -30.5 27t-16.5 36q-1 33 41 71.5t76 38.5q18 0 40.5 -13.5t22.5 -31.5q0 -23 -17 -23q-4 0 -26 8q-14 9 -34 9q-15 0 -32 -11t-17 -20q0 -19 19 -34q18 -19 44 -19q11 0 57 14q14 4 32 9z" />
    <glyph glyph-name="Ccedilla" unicode="&#xfe6f;" horiz-adv-x="219" 
d="M217 231q0 -95 -40 -157q-47 -74 -136 -74h-56v153h66q83 0 84 31q1 28 -66 101q-7 8 0 19l69 96q8 11 18 3q23 -25 42 -73t19 -99zM237 631q2 -9 0 -28q-3 -23 -8 -28q-88 -24 -207 -77l-1 44l55 28q-17 12 -28 24q-17 20 -17 39q0 34 40.5 73t74.5 39q20 0 41 -15
t23 -29q0 -24 -17 -24q-9 0 -27 7.5t-33 7.5q-18 0 -33.5 -9.5t-15.5 -20.5q0 -18 17 -34q18 -20 45 -20q15 0 47 10l18 6q20 6 26 7z" />
    <glyph glyph-name="Ograve" unicode="&#x64e;" 
d="M229 900l-231 -83v64l231 81v-62z" />
    <glyph glyph-name="Ocircumflex" unicode="&#x650;" 
d="M224 -463l-232 -81v63l232 80v-62z" />
    <glyph glyph-name="Odieresis" unicode="&#x64f;" 
d="M244 986q0 -51 -38 -76q10 -14 25 -17l-34 -52q-26 6 -52 25q-83 -41 -110 -42q-10 0 -50 35q-9 8 -9 11q0 5 24 7q77 5 110 24q-13 19 -13 42q-1 31 33.5 66t65.5 35q19 0 35 -19q13 -21 13 -39zM196 967q0 28 -20 28q-9 0 -20 -11q-7 -9 -9 -19q0 -23 24 -34
q25 17 25 36z" />
    <glyph glyph-name="multiply" unicode="&#xfe73;" 
d="M321 767q0 -51 -38 -76q10 -14 25 -17l-34 -52q-26 6 -52 25q-83 -41 -110 -42q-10 0 -50 35q-9 8 -9 11q0 5 24 7q77 5 110 24q-13 19 -13 42q-1 31 33.5 66t65.5 35q19 0 35 -19q13 -21 13 -39zM273 748q0 28 -20 28q-9 0 -20 -11q-7 -9 -9 -19q0 -23 24 -34
q25 17 25 36z" />
    <glyph glyph-name="Oslash" unicode="&#x64b;" 
d="M229 900l-231 -83v64l231 81v-62zM229 1025l-231 -82v63l231 81v-62z" />
    <glyph glyph-name="Uacute" unicode="&#x64d;" 
d="M229 -585l-231 -82v64l231 80v-62zM229 -459l-231 -82v62l231 82v-62z" />
    <glyph glyph-name="Ucircumflex" unicode="&#xfe75;" 
d="M306 -272l-231 -82v63l231 81v-62zM306 -146l-231 -82v62l231 82v-62z" />
    <glyph glyph-name="Udieresis" unicode="&#x64c;" 
d="M244 986q0 -51 -38 -76q10 -14 25 -17l-34 -52q-26 6 -52 25q-74 -37 -112 -39q-10 0 -42 30q-5 5 -5 8q6 2 37 10q8 4 13 15q1 4 1 9q0 9 -3.5 15.5t-13.5 6.5q-17 0 -30 -13l-21 21q27 26 51 26q36 0 48 -25q7 -25 -9 -47q27 6 51 18q-13 19 -13 42q-1 31 33.5 66
t65.5 35q19 0 35 -19q13 -21 13 -39zM196 967q1 28 -20 28q-9 0 -20 -11q-7 -9 -9 -19q0 -25 22 -35q26 17 27 37z" />
    <glyph glyph-name="Thorn" unicode="&#x651;" 
d="M233 943q0 -37 -14 -62q-18 -31 -50 -31t-53 18q-34 -48 -71 -48q-56 0 -56 72q0 32 9 51q8 23 25 25q4 0 9 -38q0 -36 29 -36q25 0 30 46t17 46q13 0 22 -34t35 -34t28 29q0 12 -8 46l37 24q11 -22 11 -74z" />
    <glyph glyph-name="igrave" unicode="&#x6e4;" 
d="M278 935q0 -36 -77 -67q-65 -26 -109 -26q-32 0 -61 8q-11 4 -33 9q-9 0 -21.5 -17.5t-22.5 -17.5q-17 0 -17 26q0 20 26 62t44 42l48 -17q45 -15 97 -15q27 0 68 13.5t45 13.5q13 0 13 -14z" />
    <glyph glyph-name="icircumflex" unicode="&#x652;" 
d="M190 922q0 -99 -84 -101q-32 -1 -53.5 18t-21.5 50q0 36 16 76q20 50 50 50t58 -22q35 -27 35 -71zM157 908q1 13 -19 30q-18 21 -44 21q-30 0 -30 -39q0 -33 52 -34q40 -1 41 22z" />
    <glyph glyph-name="eth" unicode="&#x674;" 
d="M229 954q3 -8 1 -30t-8 -28q-83 -21 -207 -75l-1 43q6 2 24.5 12t31.5 16q-11 5 -28.5 25.5t-17.5 38.5q0 30 38 69.5t78 40.5q18 1 41 -13.5t23 -31.5q0 -23 -19 -23q-4 0 -25.5 7.5t-34.5 7.5q-16 0 -31 -10q-18 -11 -18 -19q0 -18 20 -35q17 -18 44 -18q8 0 85 22
q3 1 4 1z" />
    <glyph glyph-name="ograve" unicode="&#x670;" 
d="M122 1045q9 -26 9 -92q0 -131 -43 -132q0 35 -2 61q-6 71 -16 109z" />
    <glyph glyph-name="ocircumflex" unicode="&#xf4;" 
d="M178 901q34 30 55 30q29 0 29 -22q0 -20 -36 -20q-10 0 -24 3zM154 911l-23 11q-18 7 -34 7q-28 0 -45 -11q-11 -6 -38 -32l3 -15q25 19 70 19q14 0 24 -3l16 -8l-24 -30l7 -25l21 23l20 24l44 -14q25 -5 43 -5q25 0 44 9q38 21 38 51q0 24 -23.5 43.5t-51.5 19.5
q-14 0 -21 -4q-11 -3 -19 -11q-35 -30 -51 -49z" />
    <glyph glyph-name="otilde" unicode="&#xf5;" 
d="M255 682q34 30 55 30q29 0 29 -22q0 -20 -36 -20q-10 0 -24 3zM231 692l-23 11q-18 7 -34 7q-28 0 -45 -11q-11 -6 -38 -32l3 -15q25 19 70 19q14 0 24 -3l16 -8l-24 -30l7 -25l21 23l20 24l44 -14q25 -5 43 -5q25 0 44 10q38 20 38 50q0 24 -23.5 43.5t-51.5 19.5
q-14 0 -21 -3q-11 -4 -19 -11q-35 -31 -51 -50z" />
    <glyph glyph-name="ugrave" unicode="&#x649;" horiz-adv-x="815" 
d="M812 288q5 -32 -1 -34q-6 0 -17 8q-29 15 -98 15q-75 0 -128 -49q-41 -38 -41 -66q0 -27 43 -41q20 -7 93 -16q60 -9 85 -28q34 -27 34 -92q0 -282 -395 -282q-280 0 -281 233q-1 60 33.5 150.5t61.5 90.5q25 0 25 -34q-4 -9 -20.5 -55t-16.5 -88q0 -150 224 -150
q103 0 183 19q117 27 117 75q0 27 -68 34q-100 11 -128 22q-69 27 -69 98q0 80 70 187q78 119 166 119q57 0 97 -50q25 -31 31 -66z" />
    <glyph glyph-name="uacute" unicode="0" horiz-adv-x="433" 
d="M361 283q-21 -19 -75 -71q-33 -32 -67 -76q-28 37 -69 81q-21 21 -77 64q20 17 73 68q20 22 69 79q16 -19 62 -70q20 -23 84 -75z" />
    <glyph glyph-name="ucircumflex" unicode="1" horiz-adv-x="416" 
d="M328 216q0 -103 -17 -179q-19 -88 -49 -88q-19 0 -24 40q-1 9 -1 69q0 303 -154 523q33 55 94 145q35 -28 82 -137q69 -165 69 -373z" />
    <glyph glyph-name="udieresis" unicode="2" horiz-adv-x="589" 
d="M523 694q0 -113 -65 -179q-59 -60 -142 -60q-13 0 -21 2q36 -141 36 -310q0 -194 -56 -195q-18 -1 -23 33q-5 158 -40 286q-39 145 -148 314l86 145q19 -21 57 -66q48 -49 121 -49q62 0 97 30q7 6 34 48q23 36 35 36q29 0 29 -35z" />
    <glyph glyph-name="yacute" unicode="3" horiz-adv-x="681" 
d="M614 677q0 -70 -29 -132q-37 -82 -98 -82q-36 0 -48 7q-19 7 -37 34q-39 -58 -109 -62q38 -113 40 -287q1 -67 -12 -131q-15 -72 -44 -72q-20 0 -25 29q-2 49 -7 104q-7 84 -37 194q-49 182 -149 301l87 154q13 -11 36 -50q11 -20 39 -55q29 -26 62 -26q45 0 66 33
q5 8 17 58q9 33 25 33q22 0 30 -28q8 -49 11 -55q15 -29 56 -29q36 0 53 30q4 7 19 56q8 28 23 28q31 0 31 -52z" />
    <glyph glyph-name="thorn" unicode="4" horiz-adv-x="609" 
d="M546 534q0 -55 -59 -114q-67 -67 -156 -67q-27 0 -41 2q12 -52 24 -157q0 -68 -9 -141q-16 -116 -48 -116q-26 0 -31 80q-12 156 -22 208q-40 190 -141 320q50 92 89 155q31 -28 79 -104q62 116 167 116q45 0 83 -35q31 -29 31 -45q0 -23 -16 -24q-10 0 -44 9.5t-55 9.5
q-47 1 -76 -29q-21 -28 -21 -56q0 -10 3 -15q19 -53 100 -55q54 -1 96 36q38 31 41 31q6 0 6 -9z" />
    <glyph glyph-name="ydieresis" unicode="5" horiz-adv-x="651" 
d="M585 169q1 -92 -41 -150t-114 -58q-65 0 -99 63q-44 -72 -121 -72q-66 -1 -104 48q-34 44 -34 112q-1 74 66 231q49 116 104 206l-23 27l62 141q5 13 11 13q5 0 12 -9q130 -163 202 -293q78 -141 79 -259zM507 164q0 52 -86 175q-65 93 -134 166q-33 -64 -75 -169
q-45 -116 -45 -158q0 -70 64 -70q41 0 61 26q5 10 15 50q7 26 27 26q24 0 31 -25q11 -41 15 -47q17 -25 63 -26q64 -1 64 52z" />
    <glyph glyph-name="Amacron" unicode="6" horiz-adv-x="595" 
d="M529 499q-1 -10 -21 -84q-18 -68 -25 -75q-15 -6 -48 -17q-111 -48 -226 -198q-49 -63 -91 -132q-23 -36 -38 -36q-13 0 -13 32q0 9 1 14q7 75 62 183q27 53 94 136q-130 30 -130 151q0 61 67 141q95 112 167 112q47 0 90 -40q39 -35 39 -71q0 -23 -13 -23t-57.5 14
t-68.5 14q-44 1 -84 -25q-44 -28 -48 -70q0 -41 50 -68q41 -22 86 -22q28 -1 106.5 45t92.5 48q11 0 8 -29z" />
    <glyph glyph-name="amacron" unicode="7" horiz-adv-x="667" 
d="M603 556q-112 -138 -167 -291q-20 -53 -53 -206q-22 -98 -43 -98q-23 0 -41 73q-34 141 -62 221q-62 170 -172 296l55 165q3 17 9 17q4 0 14 -11q64 -71 122 -220q48 -124 73 -246q18 109 62 235q54 151 123 232q3 4 12 10q4 0 10 -17z" />
    <glyph glyph-name="Abreve" unicode="8" horiz-adv-x="688" 
d="M85 136q111 138 167 291q17 45 53 204q22 99 43 99q22 0 40 -73q35 -145 63 -220q64 -173 171 -295l-54 -166q-3 -14 -10 -17q-3 0 -13 12q-65 75 -123 220q-50 127 -72 245q-19 -109 -63 -234q-52 -147 -122 -233q-8 -8 -12 -10q-4 0 -10 17z" />
    <glyph glyph-name="abreve" unicode="9" horiz-adv-x="589" 
d="M521 117l-48 -168q-101 75 -131 204q-12 52 -12 173q-41 -5 -78 -5q-183 0 -183 121q0 61 39 155q53 131 142 131t133 -79q39 -70 39 -201q1 -160 35 -241q18 -46 64 -90zM315 482q0 33 -27 61.5t-67 28.5q-32 0 -49 -19q-13 -13 -15 -33q0 -44 72 -45q61 -1 86 7z" />
    <glyph glyph-name="Aogonek" unicode="&#x200c;" 
d="M19 692v-840h-38v840h38z" />
    <glyph glyph-name="aogonek" unicode="&#x200d;" 
d="M19 -148h-38v746l-72 -73l-27 27l92 90l-92 91l27 26l91 -92l91 92l27 -26l-92 -91l92 -90l-27 -27l-72 73v-746z" />
    <glyph glyph-name="Cacute" unicode="&#x200e;" 
d="M231 643l-117 -114l-26 26l74 70h-143v-773h-38v811h181l-74 70l26 26z" />
    <glyph glyph-name="cacute" unicode="&#x200f;" 
d="M19 -148h-38v773h-143l73 -70l-26 -26l-116 114l116 116l26 -26l-73 -70h181v-811z" />
    <glyph glyph-name="Ccircumflex" unicode="&#x61f;" horiz-adv-x="420" 
d="M219 156l110 -76l-66 -94l-108 76zM347 641v-117q-33 22 -68 35t-65 13q-31 0 -53 -13q-26 -15 -26 -44q0 -27 42 -55l119 -82q1 0 3 -1.5t4 -3.5q19 -12 21 -29q-1 -7 -2 -11t-4 -12l-48 -121h-34v78q0 17 -5 25.5t-18 19.5l-72 48q-67 44 -68 117q-1 72 52 121
q49 46 133 48q50 0 89 -16z" />
    <glyph glyph-name="ccircumflex" unicode="!" horiz-adv-x="325" 
d="M140 156l110 -76l-67 -94l-109 76zM167 657q25 -95 37 -166q13 -79 13 -133q0 -57 -25 -158h-33v22q0 142 -76 319z" />
    <glyph glyph-name="Cdot" unicode="." horiz-adv-x="385" 
d="M251 70q0 -10 -26 -34.5t-32 -24.5q-10 0 -34.5 24t-24.5 34t25.5 35t35.5 25q9 0 32.5 -25t23.5 -34z" />
    <glyph glyph-name="cdot" unicode="&#x60c;" horiz-adv-x="385" 
d="M257 66q0 -15 -24.5 -37.5t-33.5 -22.5q-29 0 -51 35q-20 32 -20 62q-1 31 35 80t65 50q6 1 10 -7q0 -6 -5 -10q-41 -46 -42 -66q-1 -29 30 -42q14 -6 24.5 -18t11.5 -24z" />
    <glyph glyph-name="Ccaron" unicode="&#x66b;" horiz-adv-x="385" 
d="M257 134q1 -30 -35 -79t-65 -51q-6 0 -10 8q0 5 5 10q41 46 42 66q1 28 -30 42q-14 6 -24 16q-11 14 -12 26q0 14 24.5 37t33.5 23q29 0 51 -36q20 -31 20 -62z" />
    <glyph glyph-name="ccaron" unicode=":" horiz-adv-x="385" 
d="M251 284q0 -13 -27 -34q-19 -26 -31 -26t-35.5 24t-23.5 36q0 9 25.5 34t35.5 25q8 0 32 -25t24 -34zM251 70q0 -10 -26 -34.5t-32 -24.5q-10 0 -34.5 24t-24.5 34t25.5 35t35.5 25q9 0 32.5 -25t23.5 -34z" />
    <glyph glyph-name="Dcaron" unicode="&#x61b;" horiz-adv-x="385" 
d="M259 259q0 -15 -23.5 -38.5t-37.5 -23.5q-15 0 -38 20q-32 27 -33 79q-1 31 37.5 80t62.5 49q9 0 11 -6q1 -4 -6 -13q-41 -45 -42 -63q-1 -36 30 -44q39 -10 39 -40zM251 68q0 -9 -24 -35q-28 -24 -34 -24q-11 0 -34.5 23.5t-23.5 34.5q0 10 25 35t35 25q7 0 31.5 -24
t24.5 -35z" />
    <glyph glyph-name="dcaron" unicode="/" horiz-adv-x="350" 
d="M330 564l-258 -590h-52l257 590h53z" />
    <glyph glyph-name="Dslash" unicode="+" horiz-adv-x="350" 
d="M201 75h-53v129h-125v54h125v129h53v-129h126v-54h-126v-129z" />
    <glyph glyph-name="dcroat" unicode="-" horiz-adv-x="350" 
d="M311 220h-272v51h272v-51z" />
    <glyph glyph-name="dcroat" unicode="&#x2010;" horiz-adv-x="350" 
d="M311 220h-272v51h272v-51z" />
    <glyph glyph-name="Emacron" unicode="&#xd7;" horiz-adv-x="350" 
d="M69 89l-37 37l106 106l-106 105l37 37l106 -105l106 105l37 -37l-106 -105l106 -106l-37 -37l-106 106z" />
    <glyph glyph-name="emacron" unicode="&#xf7;" horiz-adv-x="350" 
d="M141 165h68v-67h-68v67zM141 364h68v-67h-68v67zM23 258h304v-54h-304v54z" />
    <glyph glyph-name="Ebreve" unicode="&#x66a;" horiz-adv-x="350" 
d="M130 559q0 -23 -16 -40t-40 -17t-40 17t-16 40q0 24 16 39.5t40 15.5t40 -15.5t16 -39.5zM350 614l-303 -603h-47l301 603h49zM330 60q0 -24 -16.5 -40t-40.5 -16q-23 0 -39 16t-16 40q0 23 16 40t39 17q24 0 40.5 -17t16.5 -40z" />
    <glyph glyph-name="ebreve" unicode="*" horiz-adv-x="450" 
d="M352 662q-36 -28 -87 -41q-3 -1 -4 0q2 -2 2 3q14 58 40 86q9 9 23 9q34 0 34 -34q0 -14 -8 -23zM260 724q0 -7 -7 -30q-9 -32 -25 -59q-6 -3 -2 -3l-2 3q-32 53 -32 88q0 33 34 33q13 0 23.5 -9.5t10.5 -22.5zM404 578q0 -14 -10.5 -24.5t-23.5 -10.5q-34 0 -91 34
q-1 0 -1 1l1 1q53 33 91 33q34 0 34 -34zM188 617h-2q-59 14 -86 40q-11 10 -11 24q0 35 36 35q14 0 22 -7q28 -37 41 -88v-4zM262 578q0 -15 -10.5 -25.5t-25.5 -10.5q-36 0 -36 36q0 35 36 35t36 -35zM351 497q10 -9 10 -23q0 -35 -34 -35q-21 0 -41 36q-8 15 -23 62v1h2
q60 -15 86 -41zM260 433q0 -33 -34 -33q-13 0 -23 9.5t-10 23.5q0 38 33 92v0h2q32 -54 32 -92zM171 579q-1 -1 -2 -1q-55 -34 -89 -34t-34 35q0 12 10 22.5t22 10.5q27 0 92 -33h1zM188 537q-14 -57 -43 -86q-10 -10 -21 -10q-33 0 -33 34q0 14 7 24q37 28 87 41h3v-3z" />
    <glyph glyph-name="ebreve" unicode="&#x66d;" horiz-adv-x="450" 
d="M352 662q-36 -28 -87 -41q-3 -1 -4 0q2 -2 2 3q14 58 40 86q9 9 23 9q34 0 34 -34q0 -14 -8 -23zM260 724q0 -7 -7 -30q-9 -32 -25 -59q-6 -3 -2 -3l-2 3q-32 53 -32 88q0 33 34 33q13 0 23.5 -9.5t10.5 -22.5zM404 578q0 -14 -10.5 -24.5t-23.5 -10.5q-34 0 -91 34
q-1 0 -1 1l1 1q53 33 91 33q34 0 34 -34zM188 617h-2q-59 14 -86 40q-11 10 -11 24q0 35 36 35q14 0 22 -7q28 -37 41 -88v-4zM262 578q0 -15 -10.5 -25.5t-25.5 -10.5q-36 0 -36 36q0 35 36 35t36 -35zM351 497q10 -9 10 -23q0 -35 -34 -35q-21 0 -41 36q-8 15 -23 62v1h2
q60 -15 86 -41zM260 433q0 -33 -34 -33q-13 0 -23 9.5t-10 23.5q0 38 33 92v0h2q32 -54 32 -92zM171 579q-1 -1 -2 -1q-55 -34 -89 -34t-34 35q0 12 10 22.5t22 10.5q27 0 92 -33h1zM188 537q-14 -57 -43 -86q-10 -10 -21 -10q-33 0 -33 34q0 14 7 24q37 28 87 41h3v-3z" />
    <glyph glyph-name="Edot" unicode="=" horiz-adv-x="350" 
d="M326 318h-302v45h302v-45zM326 206h-302v45h302v-45z" />
    <glyph glyph-name="edot" unicode="&#x3c;" horiz-adv-x="500" 
d="M41 185v73l418 176v-77l-331 -136l331 -137v-77z" />
    <glyph glyph-name="Eogonek" unicode="&#x3e;" horiz-adv-x="500" 
d="M459 185l-418 -178v77l331 137l-331 136v77l418 -176v-73z" />
    <glyph glyph-name="eogonek" unicode="(" horiz-adv-x="350" 
d="M224 -185q-153 192 -153 413q0 209 153 413h55q-52 -89 -69 -128q-59 -136 -59 -285q0 -207 128 -413h-55z" />
    <glyph glyph-name="Ecaron" unicode=")" horiz-adv-x="350" 
d="M126 -185h-55q128 206 128 413q0 149 -59 284q-17 40 -69 129h55q153 -204 153 -413q0 -219 -153 -413z" />
    <glyph glyph-name="glyph243" unicode="[" horiz-adv-x="290" 
d="M59 -185v805h171v-64h-94v-676h94v-65h-171z" />
    <glyph glyph-name="glyph244" unicode="]" horiz-adv-x="290" 
d="M230 -185h-171v65h93v676h-93v64h171v-805z" />
    <glyph glyph-name="ecaron" unicode="{" horiz-adv-x="350" 
d="M51 263q67 2 81 64q7 30 8 102q-1 32 2 94q10 94 80 113q16 5 53 5h24v-68h-13q-48 0 -61 -18.5t-13 -69.5q0 -113 -5 -142q-13 -81 -85 -115q57 -24 77 -80q13 -38 13 -114q0 -84 2 -99q4 -33 22 -44q14 -9 50 -9h13v-67h-24q-42 0 -61 7q-58 21 -69 88q-2 70 -4 141
q-3 97 -36 124q-21 17 -54 18v70z" />
    <glyph glyph-name="Gcircumflex" unicode="}" horiz-adv-x="350" 
d="M299 263v-70q-67 -2 -81 -65q-8 -33 -8 -97q0 -77 -2 -98q-10 -93 -80 -113q-17 -5 -53 -5h-24v67h13q48 0 62 21q12 16 12 68q0 108 4 136q12 90 86 121q-58 27 -77 80q-13 36 -13 115.5t-2 98.5q-4 32 -22 43q-14 8 -50 8h-13v68h24q41 0 61 -7q58 -21 69 -88
q5 -32 4 -110q0 -71 9 -108q14 -63 81 -65z" />
    <glyph glyph-name="gcircumflex" unicode="&#xab;" horiz-adv-x="393" 
d="M341 -14q4 -6 0 -10q-4 -6 -10 -1q-43 17 -83 77t-40 128q0 69 40 130q34 54 81 74q5 2 10 -3q4 -4 0 -10q-19 -30 -46 -78q-22 -53 -22 -110q0 -61 25 -117q8 -24 45 -80zM185 -14q4 -6 0 -10q-2 -5 -6 -5q-2 1 -3 1q-46 20 -85 80.5t-39 127.5q0 68 40 129q38 56 82 73
q5 3 8 -1t0 -10q-66 -103 -66 -189q0 -62 24 -116q12 -28 45 -80z" />
    <glyph glyph-name="Gbreve" unicode="&#xbb;" horiz-adv-x="402" 
d="M345 180q0 -65 -41 -129q-39 -60 -83 -79q-5 -2 -9 4q-3 4 0 10q20 33 47 80q24 56 24 116q0 83 -67 189q-2 1 -2 4q0 12 10 7q42 -15 81 -73q40 -61 40 -129zM189 180q1 -63 -40 -129q-36 -57 -83 -76q-5 -4 -10 1q-4 4 0 10q36 57 46 80q23 53 23 117q0 88 -66 188
q-4 6 0 10q4 5 9 3q48 -22 82 -74q38 -61 39 -130z" />
    <glyph glyph-name="gbreve" unicode="&#x2039;" horiz-adv-x="350" 
d="M161 226l114 -195h-64l-136 195l136 197h64z" />
    <glyph glyph-name="Gdot" unicode="&#x203a;" horiz-adv-x="350" 
d="M192 228l-114 195h64l130 -193l-130 -199h-64z" />
    <glyph glyph-name="gdot" unicode="&#x201c;" horiz-adv-x="350" 
d="M146 524v-90h-83v71q0 58 14 84q18 34 57 52l19 -30q-45 -19 -47 -87h40zM280 524v-90h-83v71q0 58 13 84q19 34 58 52l19 -30q-45 -19 -48 -87h41z" />
    <glyph glyph-name="Gcedilla" unicode="&#x201d;" horiz-adv-x="350" 
d="M70 547v89h83v-71q0 -57 -13 -82q-18 -35 -58 -53l-19 31q45 18 48 86h-41zM204 547v89h83v-71q0 -57 -14 -82q-18 -35 -57 -53l-19 31q45 18 47 86h-40z" />
    <glyph glyph-name="gcedilla" unicode="&#x2018;" horiz-adv-x="350" 
d="M213 524v-90h-83v71q0 58 14 84q18 34 57 52l19 -30q-45 -19 -47 -87h40z" />
    <glyph glyph-name="Hcircumflex" unicode="&#x2019;" horiz-adv-x="350" 
d="M137 547v89h83v-71q0 -57 -13 -82q-19 -35 -58 -53l-19 31q45 18 47 86h-40z" />
    <glyph glyph-name="hcircumflex" unicode="&#x2022;" horiz-adv-x="300" 
d="M0 150q0 62 44 106t106 44t106 -44t44 -106t-44 -106t-106 -44t-106 44t-44 106z" />
  </font>
</defs>
</svg>
